Welcome Guest ( Log In | Register )

 
Reply to this topicStart new topic
> Ablation - Possession Of Your Soul [demo] (1992), Thrash/Death Metal
post Mar 8 2021, 03:09:13
Post #1

Подвал
**************
Group: Металариец
Posts: 16,399
Releases: 9370
From: Far East (Khabarovsk)
On Forums: 12 years 8 months
Thanks: 106500 time(s)
Russian Federation


(IMG:http://metalarea.org/images/audiocovers/2021_Mar/acov_tid348259_thumb.jpg)

*Artist: Ablation
*Album: Possession Of Your Soul [demo]
*Year: 1992
*Genre: Thrash/Death Metal
*Country: Canada (IMG:http://metalarea.org/forum/style_images/flags/Canada.png)
*Format: mp3@CBR128kbps (IMG:http://metalarea.org/images/bit_low.gif)
*Size: 16MB

Tracklist:
1. Useless War 04:44
2. Walls Of Reality 03:10
3. Traitor 04:31
4. Possession Of Your Soul 05:03
******************************
Total playing time: 17:28



Extended info
Recorded and mixed at D.N.A. Studio on January 25th, 1992.


Technical info
(IMG:http://metalarea.org/images/spectrogram/2021_Mar/15e23e80e3aaa82828a990bfb3ca1e9a.png)
Input File: 01-Useless War.mp3
Channels : 2
Sample Rate : 44100
Precision : 16-bit
Duration : 00:04:44.12 = 12529516 samples = 21308.7 CDDA sectors
File Size : 4.55M
Bit Rate : 128k
Sample Encoding: MPEG audio (layer I, II or III)
Comments :
Title=Useless War
Artist=Ablation (Can)
Album=Possession of Your Soul (Demo)
Tracknumber=01
Year=1992
Genre=Death Metal



Register


Go to the top of the page
  Insert nick Quick quote
+Quote Post

Reply to this topicStart new topic
1 User(s) are reading this topic (1 Guests and 0 Anonymous Users)
0 Members:

 



- Lo-Fi Version Support form
Copyrights and abuse reports form
Time is now: 16th October 2021 - 18:25:06