Welcome Guest ( Log In | Register )

> The Furor - Obliteration Matrix (2021), Black/Death Metal (D)
post Mar 9 2021, 13:31:46
Post #1

Время Мары
**************
Group: Металариец
Posts: 3,242
Releases: 473
From: Харьков
On Forums: 12 years 1 month
Thanks: 9717 time(s)
Ukraine


(IMG:http://metalarea.org/images/audiocovers/2021_Mar/acov_tid348296_thumb.jpg)

*Artist: The Furor
*Album: Obliteration Matrix
*Year: 2021
*Genre: Black/Death Metal
*Country: Australia (IMG:http://metalarea.org/forum/style_images/flags/Australia.png)
*Format: mp3@CBR320kbps
*Size: 91MB

Tracklist:
01. Surging Curse Assassin
02. Necrorebellion
03. The Hammerstorm Forecast
04. Wrath of Abraxas
05. The Funeral Abominator
06. Titan Demigods Descend
07. Immortal Vortex Rising
08. Destination Damnation
******************************
Total playing time: 39:46

Technical info
(IMG:http://metalarea.org/images/spectrogram/2021_Mar/8971e8bb77a988c5b573bf05102ab9c8.png)
Input File: 02. Necrorebellion.mp3
Channels : 2
Sample Rate : 44100
Precision : 16-bit
Duration : 00:04:41.17 = 12399773 samples = 21088 CDDA sectors
File Size : 11.2M
Bit Rate : 320k
Sample Encoding: MPEG audio (layer I, II or III)
Comments :
Title=Necrorebellion
Artist=The Furor
Album=Obliteration Matrix
Tracknumber=02
Year=2021



Register


Go to the top of the page
  Insert nick Quick quote
+Quote Post
 
Start new topic
Replies (1 - 4)
post Mar 13 2021, 08:40:27
Post #2

Правь статус, ####!111
**************
Group: Металариец
Posts: 49,008
Releases: 848
On Forums: 12 years 1 month
Thanks: 44046 time(s)
Russian Federation


Обложка - полнейший ад. (IMG:style_emoticons/default/25.gif)
Go to the top of the page
  Insert nick Quick quote
+Quote Post
post Mar 14 2021, 20:33:25
Post #3

Маньяк
**********
Group: Металариец
Posts: 1,091
Releases: 4
From: Харьков
On Forums: 12 years 11 months
Thanks: 403 time(s)
Ukraine


Go to the top of the page
  Insert nick Quick quote
+Quote Post
post Mar 20 2021, 22:58:38
Post #4

Правь статус, ####!111
**************
Group: Металариец
Posts: 7,393
Releases: 165
From: URUGUAY
On Forums: 14 years 10 months
Thanks: 22000 time(s)
Uruguay


mp3@CBR 320 kbps [Bandcamp rip]
Register


Thanks:
(1) wreak,
Go to the top of the page
  Insert nick Quick quote
+Quote Post
post Mar 20 2021, 23:03:26
Post #5

Правь статус, ####!111
**************
Group: Металариец
Posts: 49,008
Releases: 848
On Forums: 12 years 1 month
Thanks: 44046 time(s)
Russian Federation


Where the fuck is babanguida?
Go to the top of the page
  Insert nick Quick quote
+Quote Post

Reply to this topicStart new topic
2 User(s) are reading this topic (2 Guests and 0 Anonymous Users)
0 Members:

 



- Lo-Fi Version Support form
Copyrights and abuse reports form
Time is now: 29th July 2021 - 00:33:28