Welcome Guest ( Log In | Register )

> The Black Mysteries - .​.​.​and The Opening Of The Shadowy Sepulchre That Yawns Behind It (2021), Experimental Black Metal
post Mar 11 2021, 14:15:38
Post #1

Правь статус, 616
**************
Group: Металариец
Posts: 10,632
Releases: 8643
From: 55°35’N 38°08’E
On Forums: 15 years 9 months
Thanks: 153425 time(s)
Russian Federation


(IMG:https://metalarea.org/images/audiocovers/2021_Mar/acov_tid348357_thumb.jpg)

*Artist: The Black Mysteries
*Album: .​.​.​and The Opening Of The Shadowy Sepulchre That Yawns Behind It
*Year: 2021
*Genre: Experimental Black Metal
*Country: Netherlands (IMG:https://metalarea.org/forum/style_images/flags/Netherlands.png)
*Format: mp3@CBR320kbps
*Size: 88MB

Tracklist:
1.Ur of the Chaldeans 01:49
2.The Robe I Made From Stars 08:39
3.I Journed Through The Pale Light 08:03
4.All Ancient Hexes 06:27
5.The Ritual Demystification 06:19
6.Eloah Va-Daath Adonai Tzabaoth 06:28
******************************
Total playing time: 37:45



Technical info
(IMG:https://metalarea.org/images/spectrogram/2021_Mar/91cdafa504e4024bb374bc64f273ecc3.png)
Input File: 02 The Robe I Made From Stars.mp3
Channels : 2
Sample Rate : 44100
Precision : 16-bit
Duration : 00:08:40.10 = 22936542 samples = 39007.7 CDDA sectors
File Size : 21.0M
Bit Rate : 324k
Sample Encoding: MPEG audio (layer I, II or III)
Comments :
Title=The Robe I Made From Stars
Artist=The Black Mysteries
Album=.​.​.​and the opening of the shadowy sepulchre that yawns behind it
Tracknumber=2
Year=2021
Genre=Black Metal



Register


Go to the top of the page
  Insert nick Quick quote
+Quote Post
 
Start new topic
Replies (1 - 1)
post Jan 10 2023, 03:05:26
Post #2

Правь статус, ####!111
**************
Group: Металариец
Posts: 5,168
Releases: 1566
From: Brazil
On Forums: 12 years 2 months
Thanks: 63988 time(s)
Brazil


Register


Go to the top of the page
  Insert nick Quick quote
+Quote Post

Reply to this topicStart new topic
2 User(s) are reading this topic (2 Guests and 0 Anonymous Users)
0 Members:

 



- Lo-Fi Version Support form
Copyrights and abuse reports form
Time is now: 22nd April 2024 - 04:33:39