Welcome Guest ( Log In | Register )

 
Reply to this topicStart new topic
> The Penitent - All Shall Fail Us (2020), Depressive Black Metal
post Mar 11 2021, 16:21:57
Post #1

Пять Литров
*****
Group: Металариец
Posts: 431
Releases: 73
From: italy
On Forums: 12 years 11 months
Thanks: 1640 time(s)
Italy


(IMG:https://metalarea.org/images/audiocovers/2021_Mar/acov_uid106123_3afd939474e4d40480cc9649680ee52f_thumb.jpg)

*Artist: The Penitent
*Album: All Shall Fail Us
*Year: 2020
*Genre: Depressive Black Metal
*Country: Belgium (IMG:https://metalarea.org/forum/style_images/flags/Belgium.png)
*Format: mp3@VBR316kbps
*Size: 153MB

Tracklist:
1. Part I 13:58
2. Part II 13:11
3. Part III 09:57
4. Part IV 12:16
5. Part V 05:46
6. Part VI 11:15
******************************
Total playing time: 1:06:23



Technical info
(IMG:https://metalarea.org/images/spectrogram/2021_Mar/8097e4d80e6cbdda2b878e8c6c164a25.png)
Input File: The Penitent - All shall fail us - 01 Part I.mp3
Channels : 2
Sample Rate : 44100
Precision : 16-bit
Duration : 00:13:58.79 = 36990683 samples = 62909.3 CDDA sectors
File Size : 31.5M
Bit Rate : 301k
Sample Encoding: MPEG audio (layer I, II or III)
Comments :
Title=Part I
Artist=The Penitent
Album=All Shall Fail Us
Tracknumber=1
Year=2020
Genre=Depressive Black Metal



Register


This post has been edited by Borderline1991: Mar 17 2021, 06:19:12


Go to the top of the page
  Insert nick Quick quote
+Quote Post

Reply to this topicStart new topic
2 User(s) are reading this topic (2 Guests and 0 Anonymous Users)
0 Members:

 



- Lo-Fi Version Support form
Copyrights and abuse reports form
Time is now: 20th June 2021 - 23:43:09