Welcome Guest ( Log In | Register )

> Isgherurd Morth - Hellrduk (2021), Avantgarde/Progressive Black Metal
post Mar 12 2021, 17:39:36
Post #1

Правь статус, ####!111
**************
Group: Металариец
Posts: 4,450
Releases: 4084
From: Одесса
On Forums: 13 years 6 months
Thanks: 45415 time(s)
Ukraine


(IMG:http://metalarea.org/images/audiocovers/2021_Mar/acov_tid348425_thumb.jpg)

*Artist: Isgherurd Morth
*Album: Hellrduk
*Year: 2021
*Genre: Avantgarde/Progressive Black Metal
*Country: International (IMG:http://metalarea.org/forum/style_images/flags/International.png)
*Format: mp3@CBR320kbps
*Size: 76MB

Tracklist:
1. Inferhn 07:57
2. Kultth Tormentr 06:39
3. Nokturahl 05:05
4. Lucir Stormalah 06:32
5. Beliath Todh Grimr 05:20
******************************
Total playing time: 31:33



Extended info
Line - up:

Peter Shallmin - Bass (Kamlath, Stench Price)
Romain Goulon - Drums (Arsebreed, Mephistophelian, Raising the Veil, Sadist, Spectral, Spheric Universe Experience, ex-Disharmony, ex-Krysalyd, ex-Logon, ex-Necrophagist, Apex, Stench Price, ex-Agressor, ex-Avgrunn, ex-Benighted, ex-Disavowed, ex-Kaoteon, ex-Blasphemer (live), ex-Taliandörögd (live), ex-Imperial Sodomy, ex-Scaveng'ours (live), ex-Belëf, ex-Monument of Misanthropy, ex-Leek Eyes, ex-Nufutic)
Max Konstantinov - Guitars (Heavenwithus, Kamlath, Stench Price)


Technical info
(IMG:http://metalarea.org/images/spectrogram/2021_Mar/56ccf82ae7e839e9ab22b1feabfd0f0e.png)
Input File: 02 - Kultth Tormentr.mp3
Channels : 2
Sample Rate : 44100
Precision : 16-bit
Duration : 00:06:39.39 = 17612879 samples = 29953.9 CDDA sectors
File Size : 16.0M
Bit Rate : 320k
Sample Encoding: MPEG audio (layer I, II or III)
Comments :
Title=Kultth Tormentr
Artist=Isgherurd Morth
Album=Hellrduk
Tracknumber=2
Year=2021
Genre=Avantgarde/Progressive Black Metal



Register


Go to the top of the page
  Insert nick Quick quote
+Quote Post
 
Start new topic
Replies (1 - 4)
post Mar 14 2021, 12:25:55
Post #2

0%Tolerance
***********
Group: Металариец
Posts: 1,517
Releases: 0
On Forums: 9 years 2 months
Thanks: 286 time(s)
Unknown


Молодцы ребятки, хороший дебют.
Go to the top of the page
  Insert nick Quick quote
+Quote Post
post Nov 21 2021, 09:59:05
Post #3

Шесть Литров
******
Group: Металариец
Posts: 602
Releases: 0
On Forums: 2 years 7 months
Thanks: 298 time(s)
Ukraine


Понравилось. Удерживает внимание на протяжении всего альбома. Не для фонового прослушивания.
Go to the top of the page
  Insert nick Quick quote
+Quote Post
post Nov 22 2021, 11:24:27
Post #4

Три Литра
***
Group: Завсегдатай
Posts: 290
Releases: 1
From: Brasil - Sao Paulo
On Forums: 1 year 7 months
Thanks: 118 time(s)
Brazil


Reupload? Thanks!
Go to the top of the page
  Insert nick Quick quote
+Quote Post
post Nov 23 2021, 17:39:26
Post #5

Три Литра
***
Group: Завсегдатай
Posts: 290
Releases: 1
From: Brasil - Sao Paulo
On Forums: 1 year 7 months
Thanks: 118 time(s)
Brazil


QUOTE(Mencae77 @ Nov 22 2021, 11:24:27) *
Reupload? Thanks!

Register

Thanks a lot dude!!!:P


Thanks:
(1) wreak,
Go to the top of the page
  Insert nick Quick quote
+Quote Post

Reply to this topicStart new topic
1 User(s) are reading this topic (1 Guests and 0 Anonymous Users)
0 Members:

 



- Lo-Fi Version Support form
Copyrights and abuse reports form
Time is now: 9th December 2021 - 04:39:57