Welcome Guest ( Log In | Register )

> Releases Upload / Добавление релизов

Добавить релиз тут / Click here to add release
Рекомендованные обменники / Recommended file shares

> Cthonica - The Lesser Incantations Of Chthonic Lore [ep] (2021), Black Metal
post Mar 16 2021, 18:14:25
Post #1

Правь статус, ####!111
**************
Group: Металариец
Posts: 2,248
Releases: 1803
From: Praha
On Forums: 7 years 1 month
Thanks: 47528 time(s)
Czech Republic


(IMG:http://metalarea.org/images/audiocovers/2021_Mar/acov_tid348564_thumb.jpg)

*Artist: Cthonica
*Album: The Lesser Incantations Of Chthonic Lore [ep]
*Year: 2021
*Genre: Black Metal
*Country: Venezuela (IMG:http://metalarea.org/forum/style_images/flags/Venezuela.png)
*Format: mp3@CBR320kbps
*Size: 71MB

Tracklist:
1. The Formless Bonds of Sacramental Rituals 10:22
2. The Bonds of Infernal Abhorrence 07:38
3. The Lesser Incantations of Chthonic Lore (Black Flame Plague) 11:58
******************************
Total playing time: 29:58



Extended info
Sentient Ruin Laboratories - SRUIN129


Technical info
(IMG:http://metalarea.org/images/spectrogram/2021_Mar/54ed97a7d6dab98c69ba2a929d2e60fb.png)
Input File: 01. The Formless Bonds of Sacramental Rituals.mp3
Channels : 2
Sample Rate : 44100
Precision : 16-bit
Duration : 00:10:23.08 = 27477872 samples = 46731.1 CDDA sectors
File Size : 24.9M
Bit Rate : 320k
Sample Encoding: MPEG audio (layer I, II or III)
Comments :
Title=The Formless Bonds of Sacramental Rituals
Artist=Cthonica
Album=The Lesser Incantations of Chthonic Lore
Tracknumber=01/03
Year=2021
Genre=Black Metal



Register


Go to the top of the page
  Insert nick Quick quote
+Quote Post
 
Start new topic
Replies (1 - 2)
post Mar 17 2021, 07:58:20
Post #2

Два Литра
**
Group: Завсегдатай
Posts: 148
Releases: 69
On Forums: 7 months 3 weeks
Thanks: 623 time(s)
Unknown


Какая отличная группа, какой сюрприз, что она родом из этой страны ... (IMG:style_emoticons/default/9.gif) (IMG:style_emoticons/default/25.gif)
Go to the top of the page
  Insert nick Quick quote
+Quote Post
post May 4 2021, 10:08:36
Post #3

Два Литра
**
Group: Завсегдатай
Posts: 180
Releases: 0
From: Isla de Margarita, Venezuela
On Forums: 2 years 3 months
Thanks: 19 time(s)
Venezuela


QUOTE(ITNOR @ Mar 17 2021, 02:58:20) *
Какая отличная группа, какой сюрприз, что она родом из этой страны ... (IMG:style_emoticons/default/9.gif) (IMG:style_emoticons/default/25.gif)



No, no es una sorpresa, tenemos una escena pequeña, pero de varias décadas. Empezamos haciendo Heavy-Metal autentico hacía finales de los años 70. Aunque es cierto, que no hemos logrado colocar una o varias bandas entre la élite mundial.

----

Нет, это не удивительно, у нас небольшая сцена, но ей уже несколько десятков лет. Мы начали заниматься настоящим хэви-металом в конце 70-х. Хотя это правда, нам не удалось поместить одну или несколько групп в мировую элиту.


¡Viva Venezuela!
Go to the top of the page
  Insert nick Quick quote
+Quote Post

Reply to this topicStart new topic
2 User(s) are reading this topic (2 Guests and 0 Anonymous Users)
0 Members:

 



- Lo-Fi Version Support form
Copyrights and abuse reports form
Time is now: 13th May 2021 - 10:52:53