Welcome Guest ( Log In | Register )

 
Reply to this topicStart new topic
> Changeling & Everlasting Light - Changeling/Everlasting Light [split] (2021), Atmospheric Black Metal | Atmospheric Black Metal
post Mar 16 2021, 18:53:59
Post #1

Правь статус, ####!616
**************
Group: Металариец
Posts: 6,424
Releases: 4901
From: 55°35’N 38°08’E
On Forums: 12 years 11 months
Thanks: 90571 time(s)
Unknown


(IMG:https://metalarea.org/images/audiocovers/2021_Mar/acov_tid348565_thumb.jpg)

*Artist: Changeling & Everlasting Light
*Album: Changeling/Everlasting Light [split]
*Year: 2021
*Genre: Atmospheric Black Metal | Atmospheric Black Metal
*Country: United States (IMG:https://metalarea.org/forum/style_images/flags/United%20States.png) | United States (IMG:https://metalarea.org/forum/style_images/flags/United%20States.png)
*Format: mp3@CBR320kbps
*Size: 76MB

Tracklist:
Changeling:
1.My Imprint Left Below 16:35
Everlasting Light:
2.Vemod 05:32
3.Okjokull 10:42
******************************
Total playing time: 32:49



Technical info
(IMG:https://metalarea.org/images/spectrogram/2021_Mar/cbbf432c9116e2ce7ea9bffc474577d4.png)
Input File: 01 Changeling - My Imprint Left Below.mp3
Channels : 2
Sample Rate : 44100
Precision : 16-bit
Duration : 00:16:35.64 = 43907592 samples = 74672.8 CDDA sectors
File Size : 40.0M
Bit Rate : 321k
Sample Encoding: MPEG audio (layer I, II or III)
Comments :
Title=My Imprint Left Below
Artist=Changeling
Album=Changeling / Everlasting Light Split
Tracknumber=1
Year=2021
Genre=Black Metal



Register


Go to the top of the page
  Insert nick Quick quote
+Quote Post

Reply to this topicStart new topic
1 User(s) are reading this topic (1 Guests and 0 Anonymous Users)
0 Members:

 



- Lo-Fi Version Support form
Copyrights and abuse reports form
Time is now: 25th June 2021 - 12:01:03