Welcome Guest ( Log In | Register )

> Forum rules / Правила раздела

Here go releases which can't go to New releases forums due lack of information, stolen links or incorrect data and just founded in other sites links with minimum info. Reissue of this releases through Add release form with added/corrected data, info and own links highly welcomed.

Сюда уходят релизы, не пропущенные в основные релизные форумы по причинам отсутствия, недостаточности или неверности/некорректности сопровождающей информации, содержащие ссылки, указывающие на файлы, залитые не автором темы, а так же просто найденные где-то ссылки с минимумом информации. Переоформление тем отсюда через форму Добавления релиза с перезаливкой ссылок крайне приветствуется.

> Morbus Grave & Deathfucker - Defilers In Morbid Decay [split] (2020), Death Metal | Death/Thrash Metal
post Mar 16 2021, 19:00:24
Post #1

Два Литра
**
Group: Завсегдатай
Posts: 148
Releases: 69
On Forums: 9 months 6 days
Thanks: 642 time(s)
Unknown


(IMG:https://metalarea.org/images/audiocovers/2021_Mar/acov_tid348566_thumb.jpg)

*Artist: Morbus Grave & Deathfucker
*Album: Defilers In Morbid Decay [split]
*Year: 2020
*Genre: Death Metal | Death/Thrash Metal
*Country: Italy (IMG:https://metalarea.org/forum/style_images/flags/Italy.png) | Italy (IMG:https://metalarea.org/forum/style_images/flags/Italy.png)
*Format: mp3@CBR320kbps
*Size: 36MB

Tracklist:
Side A
1. Morbus Grave - Intro / Rancid Flesh Decay
2. Morbus Grave - Necronomicon / Outro

Side B
1. Deathfucker - Wounded Revelation
2. Deathfucker - Crown of Infamy
******************************
Total playing time: 16:37





Technical info
(IMG:https://metalarea.org/images/spectrogram/2021_Mar/a96674cc3b034697bbacd4167717bad5.png)
Input File: A1. Morbus Grave - Intro - Rancid Flesh Decay.mp3
Channels : 2
Sample Rate : 44100
Precision : 16-bit
Duration : 00:03:28.31 = 9186515 samples = 15623.3 CDDA sectors
File Size : 8.33M
Bit Rate : 320k
Sample Encoding: MPEG audio (layer I, II or III)



Register
Go to the top of the page
  Insert nick Quick quote
+Quote Post
 
Start new topic
Replies (1 - 2)
post Mar 17 2021, 03:45:31
Post #2

\m/
Group Icon
Group: S-moderation team
Posts: 7,932
Releases: 19
From: Петропавловск-Камчатский
On Forums: 12 years 1 week
Thanks: 7984 time(s)
Russian Federation


Changeling & Everlasting Light - Changeling/Everlasting Light [split] (2021) пример правильного оформления сплита


Thanks:
Go to the top of the page
  Insert nick Quick quote
+Quote Post
post Mar 17 2021, 07:30:32
Post #3

Два Литра
**
Group: Завсегдатай
Posts: 148
Releases: 69
On Forums: 9 months 6 days
Thanks: 642 time(s)
Unknown


QUOTE(DarkHorde @ Mar 17 2021, 03:45:31) *
Changeling & Everlasting Light - Changeling/Everlasting Light [split] (2021) пример правильного оформления сплита




Спасибо за вашу помощь (IMG:style_emoticons/default/9.gif) (IMG:style_emoticons/default/9.gif) (IMG:style_emoticons/default/9.gif) ....


Thanks:
(1) Occultas,
Go to the top of the page
  Insert nick Quick quote
+Quote Post

Reply to this topicStart new topic
2 User(s) are reading this topic (2 Guests and 0 Anonymous Users)
0 Members:

 



- Lo-Fi Version Support form
Copyrights and abuse reports form
Time is now: 25th June 2021 - 10:14:51