Welcome Guest ( Log In | Register )

> Satanic Sacrifice - Demo I [demo] (2013), Black Metal
post Mar 17 2021, 01:39:15
Post #1

Два Литра
**
Group: Завсегдатай
Posts: 159
Releases: 72
On Forums: 1 year 1 week
Thanks: 688 time(s)
Unknown


(IMG:https://metalarea.org/images/audiocovers/2021_Mar/acov_tid348575_thumb.jpg)

*Artist: Satanic Sacrifice
*Album: Demo I [demo]
*Year: 2013
*Genre: Black Metal
*Country: United States (IMG:https://metalarea.org/forum/style_images/flags/United%20States.png)
*Format: mp3@CBR320kbps
*Size: 25MB

Tracklist:
1. Black Bestial Summoning
2. Infernal Hatred from the Depths of Hell
3. Rites of Satanic Sacrifice
******************************
Total playing time: 13:04


METAL-ARCHIVES

Technical info
(IMG:https://metalarea.org/images/spectrogram/2021_Mar/b0e693e683e6b448771c4ea1c4204279.png)
Input File: 1. Black Bestial Summoning.mp3
Channels : 2
Sample Rate : 44100
Precision : 16-bit
Duration : 00:04:02.22 = 10681902 samples = 18166.5 CDDA sectors
File Size : 9.69M
Bit Rate : 320k
Sample Encoding: MPEG audio (layer I, II or III)



Register


Go to the top of the page
  Insert nick Quick quote
+Quote Post
 
Start new topic
Replies (1 - 1)
post Mar 26 2021, 08:51:52
Post #2

добрый мизантроп
**************
Group: Металариец
Posts: 2,394
Releases: 1
From: Менск
On Forums: 10 years 10 months
Thanks: 1081 time(s)
Madagascar


(IMG:style_emoticons/default/true_black.gif) (IMG:style_emoticons/default/true_black.gif) (IMG:style_emoticons/default/true_black.gif)

mirror
Register



Thanks:
(1) Svafrlami,
Go to the top of the page
  Insert nick Quick quote
+Quote Post

Reply to this topicStart new topic
2 User(s) are reading this topic (2 Guests and 0 Anonymous Users)
0 Members:

 



- Lo-Fi Version Support form
Copyrights and abuse reports form
Time is now: 27th September 2021 - 04:23:06