Welcome Guest ( Log In | Register )

> Ered - Incarnated Horror [ep] (2008), Death/Black Metal (D)
post Mar 18 2021, 09:35:22
Post #1

...
**************
Group: Металариец
Posts: 3,564
Releases: 1492
From: МЕЩЁРА
On Forums: 13 years 5 months
Thanks: 43630 time(s)
Russian Federation


(IMG:https://metalarea.org/images/audiocovers/2021_Mar/acov_tid348627_thumb.jpg)

*Artist: Ered
*Album: Incarnated Horror [ep]
*Year: 2008
*Genre: Death/Black Metal
*Country: Spain (IMG:https://metalarea.org/forum/style_images/flags/Spain.png)
*Format: mp3@CBR320kbps
*Size: 59MB

Tracklist:
1. Blessed By Fire 04:49
2. Bastards Condemnation 04:06
3. Incarnated Horror 04:56
4. For The Eternity Of Sin 04:49
5. Ancestral Blood 05:22
******************************
Total playing time: 24:02




Extended info
+ Scans.



Technical info
(IMG:https://metalarea.org/images/spectrogram/2021_Mar/22cbe2427de8dda14ab5e9f7fe7dcdf9.png)
Input File: 1. Blessed By Fire.mp3
Channels : 2
Sample Rate : 44100
Precision : 16-bit
Duration : 00:04:49.90 = 12784590 samples = 21742.5 CDDA sectors
File Size : 11.6M
Bit Rate : 320k
Sample Encoding: MPEG audio (layer I, II or III)
Comments :
Title=Blessed by Fire
Artist=Ered
Album=Incarnated Horror
Tracknumber=1
Year=2008
Genre=Black/Death Metal



Register


Go to the top of the page
  Insert nick Quick quote
+Quote Post
 
Start new topic
Replies (1 - 2)
post Mar 18 2021, 18:54:16
Post #2

Два Литра
**
Group: Завсегдатай
Posts: 119
Releases: 0
From: Euskadi
On Forums: 3 years 3 months
Thanks: 11 time(s)
Spain


Thanks
Go to the top of the page
  Insert nick Quick quote
+Quote Post
post Mar 26 2021, 05:49:38
Post #3

добрый мизантроп
**************
Group: Металариец
Posts: 2,368
Releases: 1
From: Менск
On Forums: 10 years 10 months
Thanks: 1075 time(s)
Madagascar


masterpiece

mirror
Register


Thanks:
(1) Svafrlami,
Go to the top of the page
  Insert nick Quick quote
+Quote Post

Reply to this topicStart new topic
2 User(s) are reading this topic (2 Guests and 0 Anonymous Users)
0 Members:

 



- Lo-Fi Version Support form
Copyrights and abuse reports form
Time is now: 19th September 2021 - 18:29:49