Welcome Guest ( Log In | Register )

> Olde - Pilgrimage (2021), Doom/Stoner Metal/Sludge (D5)
post Mar 19 2021, 18:01:46
Post #1

Правь статус, ####!111
**************
Group: Металариец
Posts: 4,162
Releases: 3812
From: Одесса
On Forums: 13 years 1 month
Thanks: 41697 time(s)
Ukraine


(IMG:http://metalarea.org/images/audiocovers/2021_Mar/acov_tid348692_thumb.jpg)

*Artist: Olde
*Album: Pilgrimage
*Year: 2021
*Genre: Doom/Stoner Metal/Sludge
*Country: Canada (IMG:http://metalarea.org/forum/style_images/flags/Canada.png)
*Format: mp3@CBR320kbps
*Size: 99MB

Tracklist:
1. Pilgrimage 05:03
2. A New King 05:20
3. Medico Della Peste 04:05
4. In Defiance 06:44
5. The Dead Hand 05:11
6. Depth Charge 03:47
7. Under Threatening Skies 06:08
8. Wastelands 05:44
******************************
Total playing time: 42:02




Extended info
Line - up:
Cory McCallum - Bass
Ryan Aubin - Drums, Guitars (additional) (Sons of Otis)
Greg Dawson - Guitars (Cunter, ex-Millenial Reign, ex-Grift, ex-Haitian Knife Fight)
Chris Hughes - Guitars (Moneen)
Doug McLarty - Vocals (ex-Catharsis, ex-Holy Order, ex-Jaww)

Guest/Session:
Daniel Mongrain - Guitars (Voivod, ex-Martyr, ex-Cryptopsy, ex-Gorguts, ex-DBC (live), ex-Capharnaum, ex-Black Cloud)
Nichol S. Robertson - Guitars
Nick Teehan - Saxophone


Technical info
(IMG:http://metalarea.org/images/spectrogram/2021_Mar/69941caf9fc6ee5463988a3ac690ee9f.png)
Input File: 03. Medico Della Peste.mp3
Channels : 2
Sample Rate : 44100
Precision : 16-bit
Duration : 00:04:05.46 = 10824918 samples = 18409.7 CDDA sectors
File Size : 9.82M
Bit Rate : 320k
Sample Encoding: MPEG audio (layer I, II or III)
Comments :
Title=Medico Della Peste
Artist=Olde
Album=Pilgrimage
Tracknumber=3
Year=2021
Genre=Doom/Stoner/Sludge Metal



Register


Go to the top of the page
  Insert nick Quick quote
+Quote Post
 
Start new topic
Replies (1 - 1)
post Mar 20 2021, 23:03:31
Post #2

хаос и порядок
****
Group: Металариец
Posts: 388
Releases: 0
From: Запорожье
On Forums: 11 years 3 months
Thanks: 191 time(s)
Ukraine


Из тех кто помнят что сладж это не только ковыряние в собственном дерьме в обдолбанном состоянии...
О безжалостности политики и цивилизации и эффективном пофигизме коммерческой и военной индустрии, или так мне кажется.
Мощьная штука.
Go to the top of the page
  Insert nick Quick quote
+Quote Post

Reply to this topicStart new topic
1 User(s) are reading this topic (1 Guests and 0 Anonymous Users)
0 Members:

 



- Lo-Fi Version Support form
Copyrights and abuse reports form
Time is now: 28th July 2021 - 23:39:42