Welcome Guest ( Log In | Register )

> Roraima - Wr (2021), Atmospheric Black Metal (D4)
post Mar 20 2021, 15:56:14
Post #1

Правь статус, ####!616
**************
Group: Металариец
Posts: 6,379
Releases: 4866
From: 55°35’N 38°08’E
On Forums: 12 years 11 months
Thanks: 89950 time(s)
Unknown


(IMG:https://metalarea.org/images/audiocovers/2021_Mar/acov_tid348720_thumb.jpg)

*Artist: Roraima
*Album: Wr
*Year: 2021
*Genre: Atmospheric Black Metal
*Country: Venezuela (IMG:https://metalarea.org/forum/style_images/flags/Venezuela.png)
*Format: mp3@CBR320kbps
*Size: 133MB

Tracklist:
1.El Alma De La Montaña (Intro) 02:14
2.Waraira Repano 06:35
3.La Furia De La Tormenta (Part I) 05:30
4.Galipan 04:05
5.Cuando El Sol Duerme 03:46
6.La Bruja Del Avila 04:37
7.Camino A La Cima (Interludio) 01:18
8.La Furia De La Tormenta (Part II) 03:25
9.Ecos Lejanos 03:41
10.El Valle De Mis Ancestros 04:06
11.La Noche Antigua 05:50
12.Pico Naiguata 09:32
13.Eclipse 03:10
******************************
Total playing time: 57:49




Technical info
(IMG:https://metalarea.org/images/spectrogram/2021_Mar/c176e00dad2997a7c9b020239cbf913f.png)
Input File: 02 Waraira Repano.mp3
Channels : 2
Sample Rate : 44100
Precision : 16-bit
Duration : 00:06:35.60 = 17445828 samples = 29669.8 CDDA sectors
File Size : 15.9M
Bit Rate : 322k
Sample Encoding: MPEG audio (layer I, II or III)
Comments :
Title=Waraira Repano
Artist=Roraima
Album=WR
Tracknumber=2
Year=2021
Genre=Black Metal



Register


Go to the top of the page
  Insert nick Quick quote
+Quote Post
 
Start new topic
Replies (1 - 1)
post Mar 22 2021, 22:23:46
Post #2

Пять Литров
*****
Group: Металариец
Posts: 431
Releases: 73
From: italy
On Forums: 12 years 11 months
Thanks: 1640 time(s)
Italy


(IMG:style_emoticons/default/facessspalm.png)


Thanks:
(1) WOLAND,
Go to the top of the page
  Insert nick Quick quote
+Quote Post

Reply to this topicStart new topic
2 User(s) are reading this topic (2 Guests and 0 Anonymous Users)
0 Members:

 



- Lo-Fi Version Support form
Copyrights and abuse reports form
Time is now: 20th June 2021 - 22:19:24