Welcome Guest ( Log In | Register )

> Cross Desecration - Rites Of Intoxication [ep] (2020), Black/Death Metal
post Mar 21 2021, 15:11:39
Post #1

Правь статус, ####!616
**************
Group: Металариец
Posts: 6,379
Releases: 4866
From: 55°35’N 38°08’E
On Forums: 12 years 11 months
Thanks: 89953 time(s)
Unknown


(IMG:https://metalarea.org/images/audiocovers/2021_Mar/acov_tid348759_thumb.jpg)

*Artist: Cross Desecration
*Album: Rites Of Intoxication [ep]
*Year: 2020
*Genre: Black/Death Metal
*Country: Germany (IMG:https://metalarea.org/forum/style_images/flags/Germany.png)
*Format: mp3@CBR320kbps
*Size: 35MB

Tracklist:
1.Delirium I 00:49
2.Marching Under The Great Goat Crusader 03:56
3.Unholy Preachery 02:54
4.The Kvltist 01:16
5.Intoxication Rite 05:13
6.Delirium II 00:40
******************************
Total playing time: 14:48




Technical info
(IMG:https://metalarea.org/images/spectrogram/2021_Mar/7c567db2fad2347c523162e7d4482aa6.png)
Input File: 02 Marching Under The Great Goat Crusader.mp3
Channels : 2
Sample Rate : 44100
Precision : 16-bit
Duration : 00:03:56.71 = 10438955 samples = 17753.3 CDDA sectors
File Size : 9.63M
Bit Rate : 325k
Sample Encoding: MPEG audio (layer I, II or III)
Comments :
Title=Marching Under The Great Goat Crusader
Artist=Cross Desecration
Album=Rites of Intoxication
Tracknumber=2
Year=2020
Genre=Black/Death Metal



Register


Go to the top of the page
  Insert nick Quick quote
+Quote Post
 
Start new topic
Replies (1 - 1)
post Mar 22 2021, 22:30:10
Post #2

Пять Литров
*****
Group: Металариец
Posts: 431
Releases: 73
From: italy
On Forums: 12 years 11 months
Thanks: 1640 time(s)
Italy


(IMG:style_emoticons/default/facessspalm.png)


Thanks:
Go to the top of the page
  Insert nick Quick quote
+Quote Post

Reply to this topicStart new topic
2 User(s) are reading this topic (2 Guests and 0 Anonymous Users)
0 Members:

 



- Lo-Fi Version Support form
Copyrights and abuse reports form
Time is now: 20th June 2021 - 22:32:14