Welcome Guest ( Log In | Register )

> Правила / Rules

Тут только для чтения лежат низкобитрейтные (<192kbps) релизы, для которых есть аналоги в высокобитрейтных форумах.

Here goes (and stand in read only mode) low bitrate releases (<192kbps) which were already replaced by high bitrate releases in corresponding forums.

> Taake & Helheim - Henholdsvis [split] (2021), Black Metal | Viking/Black Metal (D)(D)
post Mar 23 2021, 10:26:04
Post #1

неделимое
*********
Group: Металариец
Posts: 928
Releases: 76
On Forums: 9 years 7 months
Thanks: 1761 time(s)
Russian Federation


(IMG:http://metalarea.org/images/audiocovers/2021_Mar/acov_tid348814_thumb.jpg)

*Artist: Taake & Helheim
*Album: Henholdsvis [split]
*Year: 2021
*Genre: Black Metal | Viking/Black Metal
*Country: Norway (IMG:http://metalarea.org/forum/style_images/flags/Norway.png) | Norway (IMG:http://metalarea.org/forum/style_images/flags/Norway.png)
*Format: mp3@CBR320kbps
*Size: 50MB

Tracklist:
Taake:
1. Brotne Bein Og Mannefall 04:16
2. Ein Baat I Foss 06:45
Helheim:
3. Orkan (Taake Cover) 04:14
4. Heksesabbat (Emperor Cover) 06:50
******************************
Total playing time: 22:05




Technical info
(IMG:http://metalarea.org/images/spectrogram/2021_Mar/865414cbd5f9b629155356fac2195035.png)
Input File: 02 - Taake - Ein Baat I Foss.mp3
Channels : 2
Sample Rate : 44100
Precision : 16-bit
Duration : 00:06:44.22 = 17825882 samples = 30316.1 CDDA sectors
File Size : 16.2M
Bit Rate : 320k
Sample Encoding: MPEG audio (layer I, II or III)



Register


Go to the top of the page
  Insert nick Quick quote
+Quote Post
 
Start new topic
Replies (1 - 3)
post Mar 24 2021, 06:16:30
Post #2

кручу наждак
**************
Group: Металариец
Posts: 4,940
Releases: 104
From: Самара
On Forums: 11 years 6 hours
Thanks: 3977 time(s)
Russian Federation


Taake порадовал узнаваемостью с первых аккордов. Неужто решил вернуться к корням?
Вторая часть сплита - какая-то херня неудобоваримая.


Thanks:
Go to the top of the page
  Insert nick Quick quote
+Quote Post
post Mar 24 2021, 06:30:53
Post #3

Три Литра
***
Group: Завсегдатай
Posts: 275
Releases: 4
From: урал
On Forums: 11 years 6 months
Thanks: 374 time(s)
Russian Federation


Я опять лоу скачал (IMG:style_emoticons/default/13.gif)


Thanks:
(1) Occultas,
Go to the top of the page
  Insert nick Quick quote
+Quote Post
post Mar 24 2021, 18:21:26
Post #4

Group Icon
Group: S-moderation team
Posts: 20,742
Releases: 1443
From: Zagreb
On Forums: 10 years 2 months
Thanks: 95083 time(s)
Croatia


Somebody please add it as a new release (I'm too lazy).
Register


Go to the top of the page
  Insert nick Quick quote
+Quote Post

Причина закрытия (Borderline1991 25-03-2021):
Closed TopicStart new topic
1 User(s) are reading this topic (1 Guests and 0 Anonymous Users)
0 Members:

 



- Lo-Fi Version Support form
Copyrights and abuse reports form
Time is now: 13th May 2021 - 03:44:24