Welcome Guest ( Log In | Register )

> Meneapneontes - Περί Πολέμου Ψυχής (2018), Black Metal
post Mar 23 2021, 19:43:01
Post #1

Мегаманьяк
***********
Group: Металариец
Posts: 1,744
Releases: 290
On Forums: 12 years 7 months
Thanks: 6616 time(s)
Russian Federation


(IMG:http://metalarea.org/images/audiocovers/2021_Mar/acov_tid348832_thumb.jpg)

*Artist: Meneapneontes
*Album: Περί Πολέμου Ψυχής
*Year: 2018
*Genre: Black Metal
*Country: Greece (IMG:http://metalarea.org/forum/style_images/flags/Greece.png)
*Format: mp3@CBR320kbps
*Size: 121MB

Tracklist:
01. Ήρωος 06:32
02. Σιδηρούν γένος 04:15
03. Περί πολέμου ψυχής 04:14
04. Καταιγίς 06:20
05. Είμαι ένα κάστρο 04:25
06. Αριστόδημος 03:40
07. Αίας 03:31
08. Στων μακάρων τα νησιά 05:46
09. Χενέλλας 05:03
10. Αδεές δέος 03:48
11. Ερασιθάνατος 05:08
******************************
Total playing time: 52:42




Extended info


Lineup:
Vassilis Bass, Vocals
Takis Guitars
Archaeos Guitars (rhythm)


***FLAC-Rip***

All thanks to Veggr for lossless


Technical info
(IMG:http://metalarea.org/images/spectrogram/2021_Mar/f599df36e4b7d7ece477cdf732da415d.png)
Input File: 01-Heroos.mp3
Channels : 2
Sample Rate : 44100
Precision : 16-bit
Duration : 00:06:32.67 = 17316791 samples = 29450.3 CDDA sectors
File Size : 15.7M
Bit Rate : 320k
Sample Encoding: MPEG audio (layer I, II or III)
Comments :
Title=Ήρωος
Artist=Meneapneontes
Album=Περί πολέμου ψυχής
Tracknumber=1
Year=2018
Genre=Black Metal



Register


Go to the top of the page
  Insert nick Quick quote
+Quote Post
 
Start new topic
Replies (1 - 2)
post Mar 24 2021, 11:54:37
Post #2

Мегаманьяк
***********
Group: Металариец
Posts: 1,744
Releases: 290
On Forums: 12 years 7 months
Thanks: 6616 time(s)
Russian Federation


FLAC tracks+scans
Register


Go to the top of the page
  Insert nick Quick quote
+Quote Post
post Apr 9 2021, 04:53:20
Post #3

i listen to black metal
**************
Group: Металариец
Posts: 2,950
Releases: 138
From: Москва
On Forums: 14 years 6 months
Thanks: 2318 time(s)
Russian Federation


хорошечно- всё в меру!!!!!
Go to the top of the page
  Insert nick Quick quote
+Quote Post

Reply to this topicStart new topic
1 User(s) are reading this topic (1 Guests and 0 Anonymous Users)
0 Members:

 



- Lo-Fi Version Support form
Copyrights and abuse reports form
Time is now: 22nd June 2021 - 02:58:21