Welcome Guest ( Log In | Register )

> Plini - Impulse Voices (2020), Progressive Metal/Jazz Fusion (D5)
post Mar 24 2021, 16:15:19
Post #1

практики шума одухотворяющего
**************
Group: Металариец
Posts: 2,998
Releases: 80
On Forums: 3 years 6 months
Thanks: 3779 time(s)
Russian Federation


(IMG:https://metalarea.org/images/audiocovers/2021_Mar/acov_tid348852_thumb.jpg)

*Artist: Plini
*Album: Impulse Voices
*Year: 2020
*Genre: Progressive Metal/Jazz Fusion
*Country: Australia (IMG:https://metalarea.org/forum/style_images/flags/Australia.png)
*Format: mp3@CBR320kbps
*Size: 92MB

Tracklist:
1.I'll Tell You Someday 04:09
2.Papelillo 04:11
3.Perfume 04:06
4.Last Call 03:55
5.Impulse Voices 03:18
6.Pan 05:33
7.Ona / 1154 04:09
8.The Glass Bead Game 09:07
******************************
Total playing time: 38:28



Extended info
instrumental



Technical info
(IMG:https://metalarea.org/images/spectrogram/2021_Mar/95181ed985c2dc51ad9b9d66c1febd58.png)
Input File: 02. Papelillo.mp3
Channels : 2
Sample Rate : 44100
Precision : 16-bit
Duration : 00:04:11.11 = 11073775 samples = 18833 CDDA sectors
File Size : 10.0M
Bit Rate : 320k
Sample Encoding: MPEG audio (layer I, II or III)
Comments :
Title=Papelillo
Artist=Plini
Album=Impulse Voices
Tracknumber=2
Year=2020
Genre=Progressive Rock



Register


Go to the top of the page
  Insert nick Quick quote
+Quote Post
 
Start new topic
Replies (1 - 3)
post Mar 25 2021, 07:40:58
Post #2

Пять Литров
*****
Group: Металариец
Posts: 497
Releases: 0
From: Ташкент
On Forums: 13 years 5 months
Thanks: 160 time(s)
Uzbekistan


Наконец-то Плини и до металарии добрался )) давно пора.


Thanks:
Go to the top of the page
  Insert nick Quick quote
+Quote Post
post Mar 25 2021, 18:08:10
Post #3

Тридцать лет на борту "Тяжёлого" крейсера
**************
Group: Металариец
Posts: 2,627
Releases: 0
From: Питер
On Forums: 14 years 1 month
Thanks: 823 time(s)
Russian Federation


Довольно приятный релиз (IMG:style_emoticons/default/m1234.gif)
Go to the top of the page
  Insert nick Quick quote
+Quote Post
post Apr 3 2021, 12:28:53
Post #4

градусы контрастов
**************
Group: Металариец
Posts: 5,127
Releases: 0
On Forums: 5 years 5 months
Thanks: 3316 time(s)
Unknown


очень добрая и обнадёживающая музыка, стоит слушать когда мир сер и невыносим.


Thanks:
Go to the top of the page
  Insert nick Quick quote
+Quote Post

Reply to this topicStart new topic
2 User(s) are reading this topic (2 Guests and 0 Anonymous Users)
0 Members:

 



- Lo-Fi Version Support form
Copyrights and abuse reports form
Time is now: 29th July 2021 - 00:37:12