Welcome Guest ( Log In | Register )

> Aara - Triade I: Eos (2021), Black Metal (D4)
post Mar 25 2021, 15:51:30
Post #1

Правь статус, ####!111
**************
Group: Металариец
Posts: 29,287
Releases: 21502
From: Г.Харьков
On Forums: 10 years 2 weeks
Thanks: 444042 time(s)
Unknown


(IMG:https://metalarea.org/images/audiocovers/2021_Mar/acov_tid348906_thumb.jpg)

*Artist: Aara
*Album: Triade I: Eos
*Year: 2021
*Genre: Black Metal
*Country: Switzerland (IMG:https://metalarea.org/forum/style_images/flags/Switzerland.png)
*Format: mp3@CBR320kbps
*Size: 103MB

Tracklist:
1. Fathum 09:24
2. Tantalusqual 07:52
3. Naufragus 06:54
4. Nimmermehr 06:52
5. Das Wunder 06:45
6. Effugium 07:19
******************************
Total playing time: 45:06




Extended info
Berg Guitars, Bass
Fluss Vocals, Lyrics
J. Drums


Technical info
(IMG:https://metalarea.org/images/spectrogram/2021_Mar/232816293c493637a6b708f7181195b1.png)
Input File: 04 - Nimmermehr.mp3
Channels : 2
Sample Rate : 44100
Precision : 16-bit
Duration : 00:06:52.00 = 18169200 samples = 30900 CDDA sectors
File Size : 16.6M
Bit Rate : 322k
Sample Encoding: MPEG audio (layer I, II or III)
Comments :
Title=Nimmermehr
Artist=Aara
Album=Triade I : Eos
Tracknumber=4
Year=2021-26-03
Discnumber=1



Register


Go to the top of the page
  Insert nick Quick quote
+Quote Post
 
Start new topic
Replies (1 - 4)
post Apr 3 2021, 16:21:39
Post #2

Два Литра
**
Group: Завсегдатай
Posts: 102
Releases: 0
On Forums: 1 year 8 months
Thanks: 10 time(s)
Czech Republic


Lossless please? Thanks a lot.
Go to the top of the page
  Insert nick Quick quote
+Quote Post
post Apr 6 2021, 19:18:02
Post #3

добрый мизантроп
**************
Group: Металариец
Posts: 2,955
Releases: 1
From: Менск
On Forums: 11 years 6 months
Thanks: 1311 time(s)
Madagascar


Masterpiece (IMG:style_emoticons/default/true_black.gif) (IMG:style_emoticons/default/true_black.gif) (IMG:style_emoticons/default/true_black.gif)
Bears a little resemblance to early Die Apokalyptischen Reiter


Thanks:
(1) Occultas,
Go to the top of the page
  Insert nick Quick quote
+Quote Post
post Dec 16 2021, 09:24:32
Post #4

Group: Подсевший
Posts: 17
Releases: 0
On Forums: 1 year 1 month
Thanks: 4 time(s)
Unknown


ребят, перезалейте на мыло или я.диск. спассибо!
Go to the top of the page
  Insert nick Quick quote
+Quote Post
post Dec 16 2021, 17:09:50
Post #5

.
**************
Group: Металариец
Posts: 2,507
Releases: 2
On Forums: 13 years 10 months
Thanks: 8045 time(s)
Unknown


ЦИТАТА(lokonDiablo @ Dec 16 2021, 11:24:32) *
ребят, перезалейте на мыло или я.диск. спассибо!

Register


Go to the top of the page
  Insert nick Quick quote
+Quote Post

Reply to this topicStart new topic
1 User(s) are reading this topic (1 Guests and 0 Anonymous Users)
0 Members:

 



- Lo-Fi Version Support form
Copyrights and abuse reports form
Time is now: 25th May 2022 - 05:53:32