Welcome Guest ( Log In | Register )

> Releases Upload / Добавление релизов

Добавить релиз тут / Click here to add release
Рекомендованные обменники / Recommended file shares

> The Beast Of Nod - Multiversal (2021), Progressive/Technical Death Metal
post Mar 26 2021, 05:50:39
Post #1

MDM-Thrash Metal
**************
Group: Металариец
Posts: 10,305
Releases: 1226
From: Одесса
On Forums: 13 years 8 months
Thanks: 30005 time(s)
Ukraine


(IMG:http://metalarea.org/images/audiocovers/2021_Mar/acov_tid348927_thumb.jpg)

*Artist: The Beast Of Nod
*Album: Multiversal
*Year: 2021
*Genre: Progressive/Technical Death Metal
*Country: United States (IMG:http://metalarea.org/forum/style_images/flags/United%20States.png)
*Format: mp3@CBR320kbps
*Size: 119MB

Tracklist:
01. Flight of the Quetzalcoatlus
02. Contemporary Calamity
03. Intergalactic War!
04. Call of the Squirrel (featuring Joe Satriani)
05. Unleashing Chaos (featuring Nick Padovani)
06. The Plan for Multiversal Creation
07. Guardians of the Multiverse (featuring John Matos)
08. The Latent Threat
09. Shredding of the Cosmos (featuring Sanjay Kumar, Matias Quiroz, Michael Angelo Batio)
******************************
Total playing time: 50:36



(IMG:http://metalarea.org/images/youtube.png)

Extended info
Brendan Burdick Bass
Nate MacMillen Drums
Görebläster Körpse-härvest Lunden Guitars
See also: Mimesis, ex-Unflesh (live)
Paul Buckley Vocals


Technical info
(IMG:http://metalarea.org/images/spectrogram/2021_Mar/93f75c64ea98bd6189b078504b9d3525.png)
Input File: 02. Contemporary Calamity.mp3
Channels : 2
Sample Rate : 44100
Precision : 16-bit
Duration : 00:05:07.79 = 13573715 samples = 23084.5 CDDA sectors
File Size : 12.3M
Bit Rate : 320k
Sample Encoding: MPEG audio (layer I, II or III)
Comments :
Title=Contemporary Calamity
Artist=The Beast of Nod
Album=Multiversal
Tracknumber=02
Year=2021



Register


Go to the top of the page
  Insert nick Quick quote
+Quote Post
 
Start new topic
Replies (1 - 2)
post Apr 2 2021, 08:58:35
Post #2

hearer & reader
**************
Group: Металариец
Posts: 9,639
Releases: 171
From: Moscow
On Forums: 13 years 7 months
Thanks: 10669 time(s)
Russian Federation


Register


Thanks:
Go to the top of the page
  Insert nick Quick quote
+Quote Post
post Apr 6 2021, 18:01:19
Post #3

brutalcesar
**************
Group: Металариец
Posts: 18,167
Releases: 70
From: Рязань
On Forums: 12 years 3 months
Thanks: 10194 time(s)
Russian Federation


Вокал вялый, да ещё совсем теряется на фоне бочек, однообразная молотьба которых утомляет нехило и забивает в принципе всё, кроме соло гитары, пожалуй (IMG:style_emoticons/default/crazy.gif) Ну и атмосферность, тянущаяся поверх всего, прям постоянно - тоже разбавляет общую картину до уныния. Короче - замысел крут, но подача ни к чёрту вообще!
Go to the top of the page
  Insert nick Quick quote
+Quote Post

Reply to this topicStart new topic
1 User(s) are reading this topic (1 Guests and 0 Anonymous Users)
0 Members:

 



- Lo-Fi Version Support form
Copyrights and abuse reports form
Time is now: 5th May 2021 - 23:24:57