Welcome Guest ( Log In | Register )

> Releases Upload / Добавление релизов

Добавить релиз тут / Click here to add release
Рекомендованные обменники / Recommended file shares

> Morphium - The Fall (2021), Gothic/Death Metal (D4)
post Mar 26 2021, 12:10:15
Post #1

Правь статус, ####!111
**************
Group: Металариец
Posts: 25,974
Releases: 18630
From: Г.Харьков
On Forums: 8 years 11 months
Thanks: 368898 time(s)
Unknown


(IMG:https://metalarea.org/images/audiocovers/2021_Mar/acov_tid348940_thumb.jpg)

*Artist: Morphium
*Album: The Fall
*Year: 2021
*Genre: Gothic/Death Metal
*Country: Spain (IMG:https://metalarea.org/forum/style_images/flags/Spain.png)
*Format: mp3@CBR320kbps
*Size: 118MB

Tracklist:
1. Dance of Flies 04:15
2. The Truth 03:51
3. Parasite 04:22
4. Everybody is Dead in This House 04:18
5. Burn My Skyn (ft. Mara Lisenko) 03:48
6. Insorcism 04:58
7. Blacksoul 04:33
8. My Apocalypse 04:40
9. Something Dead Inside 04:53
10. Past 02:29
11. Tired 04:09
12. The Fall 03:21
******************************
Total playing time: 49:37



Extended info
Sergi Rivera Bass
Sebas Limongi Drums
Alex Bace Vocals
Lamb James Guitars
Javi Delgado Guitars



Technical info
(IMG:https://metalarea.org/images/spectrogram/2021_Mar/2118a8237541bbd6e5b5bda8ee0bd2c1.png)
Input File: 08 My Apocalypse.mp3
Channels : 2
Sample Rate : 44100
Precision : 16-bit
Duration : 00:04:40.15 = 12354703 samples = 21011.4 CDDA sectors
File Size : 11.7M
Bit Rate : 334k
Sample Encoding: MPEG audio (layer I, II or III)
Comments :
Title=My Apocalypse
Artist=Morphium
Album=The Fall
Tracknumber=8/12
Year=2021-21-20
Genre=Metal
Discnumber=1/1



Register


Go to the top of the page
  Insert nick Quick quote
+Quote Post
 
Start new topic
Replies (1 - 4)
post Mar 27 2021, 08:39:31
Post #2

Тридцать лет на борту "Тяжёлого" крейсера
**************
Group: Металариец
Posts: 2,563
Releases: 0
From: Питер
On Forums: 13 years 10 months
Thanks: 798 time(s)
Russian Federation


gothic/groove, пожалуй
неплохой альбом
Go to the top of the page
  Insert nick Quick quote
+Quote Post
post Mar 27 2021, 22:03:50
Post #3

Восемь Литров
********
Group: Металариец
Posts: 871
Releases: 0
From: Днепр
On Forums: 6 years 9 months
Thanks: 522 time(s)
Unknown


Да это Модерн Токинг.
Ю май хоу,Ю май бро.
Go to the top of the page
  Insert nick Quick quote
+Quote Post
post Mar 28 2021, 09:58:13
Post #4

Common dweller of hell
**************
Group: Металариец
Posts: 3,738
Releases: 12
From: Dnipro
On Forums: 12 years 9 months
Thanks: 1468 time(s)
Ukraine


industrial death metal + metalcore
Go to the top of the page
  Insert nick Quick quote
+Quote Post
post Apr 6 2021, 17:41:31
Post #5

brutalcesar
**************
Group: Металариец
Posts: 18,167
Releases: 70
From: Рязань
On Forums: 12 years 3 months
Thanks: 10194 time(s)
Russian Federation


Industrial metalcore

Звучат мощно, но распевки для меня, как серпом по самое моё (IMG:style_emoticons/default/crazy.gif)
Go to the top of the page
  Insert nick Quick quote
+Quote Post

Reply to this topicStart new topic
1 User(s) are reading this topic (1 Guests and 0 Anonymous Users)
0 Members:

 



- Lo-Fi Version Support form
Copyrights and abuse reports form
Time is now: 5th May 2021 - 22:51:00