Welcome Guest ( Log In | Register )

> Правила / Rules

Тут только для чтения лежат низкобитрейтные (<192kbps) релизы, для которых есть аналоги в высокобитрейтных форумах.

Here goes (and stand in read only mode) low bitrate releases (<192kbps) which were already replaced by high bitrate releases in corresponding forums.

Причина закрытия (DarkHorde 01-04-2021): Misotheismus - Demo 1 [demo] (2021)
 
Closed TopicStart new topic
> Misotheismus - Demo 1 [demo] (2021), Black Metal
post Mar 27 2021, 07:08:42
Post #1

Два Литра
**
Group: Завсегдатай
Posts: 148
Releases: 69
On Forums: 7 months 4 weeks
Thanks: 627 time(s)
Unknown


(IMG:https://metalarea.org/images/audiocovers/2021_Mar/acov_tid348983_thumb.jpg)

*Artist: Misotheismus
*Album: Demo 1 [demo]
*Year: 2021
*Genre: Black Metal
*Country: International (IMG:https://metalarea.org/forum/style_images/flags/International.png)
*Format: mp3@CBR320kbps
*Size: 28MB

Tracklist:
1. Jag Förbannar Ditt Namn
2. Skändad och Styckad
3. Lögnens Slut
4. Utrota Kristi Följare
******************************
Total playing time: 12:32




Technical info
(IMG:https://metalarea.org/images/spectrogram/2021_Mar/c8c0e6b655e06151c916e4cb84a2c898.png)
Input File: 1. Jag Förbannar Ditt Namn.mp3
Channels : 2
Sample Rate : 44100
Precision : 16-bit
Duration : 00:02:58.24 = 7860516 samples = 13368.2 CDDA sectors
File Size : 7.13M
Bit Rate : 320k
Sample Encoding: MPEG audio (layer I, II or III)



Register


Go to the top of the page
  Insert nick Quick quote
+Quote Post
post Mar 31 2021, 12:21:17
Post #2

0%Tolerance
*********
Group: Металариец
Posts: 967
Releases: 0
On Forums: 8 years 7 months
Thanks: 175 time(s)
Unknown


ЦИТАТА
Lyrical themes:
Misotheism, Dystheism, Maltheism


Если абстрагироваться от этой пурги - вполне годно и злобно (тут по определению, хулЕ).
Go to the top of the page
  Insert nick Quick quote
+Quote Post
post Mar 31 2021, 16:36:56
Post #3

I hate you all
**************
Group: Металариец
Posts: 2,570
Releases: 82
From: Ukraine
On Forums: 14 years 1 week
Thanks: 6552 time(s)
Ukraine


Go to the top of the page
  Insert nick Quick quote
+Quote Post

Причина закрытия (DarkHorde 01-04-2021): Misotheismus - Demo 1 [demo] (2021)
Closed TopicStart new topic
1 User(s) are reading this topic (1 Guests and 0 Anonymous Users)
0 Members:

 



- Lo-Fi Version Support form
Copyrights and abuse reports form
Time is now: 17th May 2021 - 02:33:24