Welcome Guest ( Log In | Register )

> Releases Upload / Добавление релизов

Добавить релиз тут / Click here to add release
Рекомендованные обменники / Recommended file shares

> Sunborn - Imperishable (2021), Melodic Death/Groove Metal
post Mar 27 2021, 15:30:27
Post #1

Правь статус, ####!111
**************
Group: Металариец
Posts: 26,052
Releases: 18700
From: Г.Харьков
On Forums: 9 years 5 days
Thanks: 370761 time(s)
Unknown


(IMG:https://metalarea.org/images/audiocovers/2021_Mar/acov_tid348997_thumb.jpg)

*Artist: Sunborn
*Album: Imperishable
*Year: 2021
*Genre: Melodic Death/Groove Metal
*Country: Austria (IMG:https://metalarea.org/forum/style_images/flags/Austria.png)
*Format: mp3@CBR320kbps
*Size: 66MB

Tracklist:
1. Praeludium - Flood 01:23
2. Grinder 04:16
3. Circularity 06:02
4. Eisenherz 05:07
5. (Re-)Incarnate 04:35
6. Interludium - Coronation 01:28
7. Hellrazer 06:26
******************************
Total playing time: 29:17




Extended info
Mario Suchy Drums, Backing Vocals (2009-present)
Sebastian Schweighart Vocals, Guitars (2009-present)
Nico Mittendrein Bass (2012-present)


Technical info
(IMG:https://metalarea.org/images/spectrogram/2021_Mar/a9b09d5507fbd0302e25be2d6bcd0875.png)
Input File: 07 - Hellrazer.mp3
Channels : 2
Sample Rate : 44100
Precision : 16-bit
Duration : 00:06:26.98 = 17065642 samples = 29023.2 CDDA sectors
File Size : 15.5M
Bit Rate : 320k
Sample Encoding: MPEG audio (layer I, II or III)
Comments :
Title=Hellrazer
Artist=Sunborn
Album=Imperishable
Tracknumber=7
Year=2021



Register


Go to the top of the page
  Insert nick Quick quote
+Quote Post
 
Start new topic
Replies (1 - 2)
post Mar 28 2021, 11:41:57
Post #2

Литр
*
Group: Подсевший
Posts: 66
Releases: 0
On Forums: 10 years 11 months
Thanks: 11 time(s)
Unknown


Где Мелодик то?
Go to the top of the page
  Insert nick Quick quote
+Quote Post
post Apr 8 2021, 11:21:00
Post #3

добрый мизантроп
**************
Group: Металариец
Posts: 2,182
Releases: 1
From: Минск
On Forums: 10 years 6 months
Thanks: 1028 time(s)
Madagascar


Really nice Prog Groove (IMG:style_emoticons/default/pray.gif) . But heretic synthetical drumms , which is honestly pointed on BC
ЦИТАТА(fr47 @ Mar 28 2021, 13:41:57) *
Где Мелодик то?
Есть немного мелодика, не море как в ДТ, но что-то есть, например загрувленый Mors Principium Est, + обычный дэт и метал-кор
Death-Groove нельзя указывать, так как этот стиль прилип к бесталанным релизам с забруталеным г-но грувом, либо загрувленым г-но дэтом.
Этот же релиз хорошо качает и радует слух, напомнило первый альбом Расты.

Go to the top of the page
  Insert nick Quick quote
+Quote Post

Reply to this topicStart new topic
1 User(s) are reading this topic (1 Guests and 0 Anonymous Users)
0 Members:

 



- Lo-Fi Version Support form
Copyrights and abuse reports form
Time is now: 15th May 2021 - 21:34:51