Welcome Guest ( Log In | Register )

> Fall Silent - You Knew I Was Poison (2021), Thrash Metal/Crossover
post Mar 30 2021, 15:43:51
Post #1

Правь статус, ####!111
**************
Group: Металариец
Posts: 26,313
Releases: 18927
From: Г.Харьков
On Forums: 9 years 1 month
Thanks: 377436 time(s)
Unknown


(IMG:https://metalarea.org/images/audiocovers/2021_Mar/acov_tid349088_thumb.jpg)

*Artist: Fall Silent
*Album: You Knew I Was Poison
*Year: 2021
*Genre: Thrash Metal/Crossover
*Country: United States (IMG:https://metalarea.org/forum/style_images/flags/United%20States.png)
*Format: mp3@CBR320kbps
*Size: 66MB

Tracklist:
1. As the Twig is Bent 03:36
2. The Clearing 04:09
3. You Knew I Was Poison 03:38
4. Youth is Wasted 03:20
5. Two Plus Two is Five 03:38
6. Jobs, Shelter, Food 02:36
7. Destroyer of Worlds 03:34
8. The South Virginia Street Death March 04:34
******************************
Total playing time: 29:05




Extended info
Joe Foley Bass
Damon Watson Drums
Danny Galecki Guitars
Levi Watson Vocals


Technical info
(IMG:https://metalarea.org/images/spectrogram/2021_Mar/1dc11fce18d13e05886ef3a02a1cfe48.png)
Input File: 08 - The South Virginia Street Death March.mp3
Channels : 2
Sample Rate : 44100
Precision : 16-bit
Duration : 00:04:34.33 = 12097953 samples = 20574.8 CDDA sectors
File Size : 11.0M
Bit Rate : 320k
Sample Encoding: MPEG audio (layer I, II or III)
Comments :
Title=The South Virginia Street Death March
Artist=Fall Silent
Album=You Knew I Was Poison
Tracknumber=8
Year=2021



Register


Go to the top of the page
  Insert nick Quick quote
+Quote Post
 
Start new topic
Replies (1 - 2)
post Jun 10 2021, 11:24:43
Post #2

Group: Подсевший
Posts: 39
Releases: 0
From: МОСКВА
On Forums: 10 years 10 months
Thanks: 3 time(s)
Unknown


reup plz?
Go to the top of the page
  Insert nick Quick quote
+Quote Post
post Jun 12 2021, 05:12:08
Post #3

Group Icon
Group: S-moderation team
Posts: 21,100
Releases: 1443
From: Zagreb
On Forums: 10 years 3 months
Thanks: 97331 time(s)
Croatia


Register


Thanks:
Go to the top of the page
  Insert nick Quick quote
+Quote Post

Reply to this topicStart new topic
2 User(s) are reading this topic (2 Guests and 0 Anonymous Users)
0 Members:

 



- Lo-Fi Version Support form
Copyrights and abuse reports form
Time is now: 18th June 2021 - 06:29:01