Welcome Guest ( Log In | Register )

> Releases Upload / Добавление релизов

Добавить релиз тут / Click here to add release
Рекомендованные обменники / Recommended file shares

> Misotheismus - Demo 1 [demo] (2021), Raw Black Metal
post Mar 30 2021, 18:52:50
Post #1

Malum dominus omnium
****
Group: Металариец
Posts: 331
Releases: 242
On Forums: 1 year 2 months
Thanks: 4758 time(s)
Vatican City


(IMG:https://metalarea.org/images/audiocovers/2021_Mar/acov_tid349098_thumb.jpg)

*Artist: Misotheismus
*Album: Demo 1 [demo]
*Year: 2021
*Genre: Raw Black Metal
*Country: International (IMG:https://metalarea.org/forum/style_images/flags/International.png)
*Format: mp3@CBR320kbps
*Size: 29MB

Tracklist:
1. Jag Förbannar Ditt Namn 02:58
2. Skändad och Styckad 03:19
3. Lögnens Slut 03:20
4. Utrota Kristi Följare 02:54
******************************
Total playing time: 12:31

Metal Archives

(IMG:https://metalarea.org/images/youtube.png)

Technical info
(IMG:https://metalarea.org/images/spectrogram/2021_Mar/13f734a19ad94083a67e8391aede20be.png)
Input File: Misotheismus - Lögnens Slut.mp3
Channels : 2
Sample Rate : 44100
Precision : 16-bit
Duration : 00:03:20.40 = 8837464 samples = 15029.7 CDDA sectors
File Size : 8.02M
Bit Rate : 320k
Sample Encoding: MPEG audio (layer I, II or III)
Comments :
Title=Lögnens Slut
Album=Demo 1
Tracknumber=3
Year=2021
Genre=Black Metal



Register


Go to the top of the page
  Insert nick Quick quote
+Quote Post
 
Start new topic
Replies (1 - 1)
post Apr 9 2021, 18:12:21
Post #2

добрый мизантроп
**************
Group: Металариец
Posts: 2,176
Releases: 1
From: Минск
On Forums: 10 years 5 months
Thanks: 1021 time(s)
Madagascar


Not bad Sweden Equador duet. Sounds like one-man.
Go to the top of the page
  Insert nick Quick quote
+Quote Post

Reply to this topicStart new topic
1 User(s) are reading this topic (1 Guests and 0 Anonymous Users)
0 Members:

 



- Lo-Fi Version Support form
Copyrights and abuse reports form
Time is now: 13th May 2021 - 03:38:02