Welcome Guest ( Log In | Register )

> И неформату есть предел.

Рэп/хип-хоп/шансон/поп удаляются. Для них есть свои порталы.

> Godspeed You! Black Emperor - G_D's Pee At State's End! (2021), Post Rock (D7)
post Mar 31 2021, 11:01:37
Post #1

Четыре Литра
****
Group: Металариец
Posts: 375
Releases: 136
From: Helvetia
On Forums: 8 years 4 months
Thanks: 2933 time(s)
Switzerland


(IMG:https://metalarea.org/images/audiocovers/2021_Mar/acov_tid349114_thumb.jpeg)

*Artist: Godspeed You! Black Emperor
*Album: G_D's Pee At State's End!
*Year: 2021
*Genre: Post Rock
*Country: Canada (IMG:https://metalarea.org/forum/style_images/flags/Canada.png)
*Format: mp3@CBR320kbps
*Size: 120MB

Tracklist:
1. "A Military Alphabet (five eyes all blind) (4521.0kHz 6730.0kHz 4109.09kHz) / Job's Lament / First of the Last Glaciers / where we break how we shine (Rockets for Mary)" 20:22
2. "Fire at Static Valley" 5:58
3. ""Government Came" (9980.0kHz 3617.1kHz 4521.0 kHz) / Cliffs Gaze / cliffs' gaze at empty waters' rise / Ashes to Sea or Nearer to Thee" 19:48
4. "Our Side Has to Win (for D.H.)" 6:30
******************************
Total playing time: 52:38



Preview 3

Extended info
G_d's Pee at State's End! (stylised as G_d's Pee AT STATE'S END!) is the seventh studio album by Canadian post-rock band Godspeed You! Black Emperor, scheduled for release on 2 April 2021 by Constellation Records.


Technical info
(IMG:https://metalarea.org/images/spectrogram/2021_Mar/2571e70312193b46c8601f1eac237012.png)
Input File: 02-Fire at Static Valley.mp3
Channels : 2
Sample Rate : 44100
Precision : 16-bit
Duration : 00:05:58.50 = 15809894 samples = 26887.6 CDDA sectors
File Size : 14.3M
Bit Rate : 320k
Sample Encoding: MPEG audio (layer I, II or III)
Comments :
Title=Fire at Static Valley
Artist=Godspeed You! Black Emperor
Album=G_d's Pee At States End!
Tracknumber=2
Year=2021
Genre=Post-Rock



Register


Go to the top of the page
  Insert nick Quick quote
+Quote Post
 
Start new topic
Replies (1 - 7)
post Apr 1 2021, 15:02:41
Post #2

Dark Ambient Shoujo
**********
Group: Металариец
Posts: 1,379
Releases: 2
On Forums: 12 years 5 months
Thanks: 818 time(s)
Russian Federation


Хороший альбом. Ждем лося.


Thanks:
Go to the top of the page
  Insert nick Quick quote
+Quote Post
post Jun 2 2021, 13:16:46
Post #3

####!111
**************
Group: Металариец
Posts: 4,422
Releases: 133
From: The Mountain Of DOOM
On Forums: 13 years 8 months
Thanks: 6191 time(s)
Russian Federation


Как обычно (кроме разве что 2002 и 2012) половина нудятина, половина отлично
Go to the top of the page
  Insert nick Quick quote
+Quote Post
post Jun 2 2021, 13:17:26
Post #4

Ледоруб
**************
Group: Металариец
Posts: 28,181
Releases: 0
From: Санкт-Петербург
On Forums: 11 years 9 months
Thanks: 10173 time(s)
Russian Federation


Мало комментов.
Go to the top of the page
  Insert nick Quick quote
+Quote Post
post Jun 2 2021, 16:49:21
Post #5

королева бала
******
Group: Металариец
Posts: 654
Releases: 0
On Forums: 14 years 1 month
Thanks: 470 time(s)
Russian Federation


Альбом так себе, по этому и мало
Go to the top of the page
  Insert nick Quick quote
+Quote Post
post Jun 11 2021, 13:19:54
Post #6

Литр
*
Group: Подсевший
Posts: 72
Releases: 0
From: Калуга
On Forums: 3 years 4 months
Thanks: 25 time(s)
Russian Federation


"Муть, чушь и компот" - Дмитрий Медведев.
Go to the top of the page
  Insert nick Quick quote
+Quote Post
post Jun 11 2021, 15:00:20
Post #7

:3
**************
Group: Металариец
Posts: 4,713
Releases: 104
From: Novosibirsk
On Forums: 13 years 8 months
Thanks: 3829 time(s)
Russian Federation


Пытался другие работы их послушать, но так и не понял, что это такое и зачем оно вообще нужно. Так что, согласен с комментарием выше.
Go to the top of the page
  Insert nick Quick quote
+Quote Post
post Jun 11 2021, 15:29:19
Post #8

королева бала
******
Group: Металариец
Posts: 654
Releases: 0
On Forums: 14 years 1 month
Thanks: 470 time(s)
Russian Federation


QUOTE(Shub @ Jun 11 2021, 17:00:20) *
Пытался другие работы их послушать, но так и не понял, что это такое и зачем оно вообще нужно. Так что, согласен с комментарием выше.

Может неудачные попадались?

У них есть несколько довольно-таки потрясных альбомов. А именно:

2000 - Lift Your Skinny Fists Like Antennas to Heaven
2012 - Allelujah! Don't Bend! Ascend!
Еще этот, хоть и чуть уступает предыдущим:
2015 - Asunder, Sweet And Other Distress

Перед 2000 и 2012 снимаю шляпу, великолепная музыка на века.
Go to the top of the page
  Insert nick Quick quote
+Quote Post

Reply to this topicStart new topic
2 User(s) are reading this topic (2 Guests and 0 Anonymous Users)
0 Members:

 



- Lo-Fi Version Support form
Copyrights and abuse reports form
Time is now: 18th June 2021 - 06:19:04