Welcome Guest ( Log In | Register )

> 13Th Moon - Putridarium [ep] (2021), Black/Death Metal (D)
post Mar 31 2021, 21:22:35
Post #1

Правь статус, ####!111
**************
Group: Металариец
Posts: 26,644
Releases: 19190
From: Г.Харьков
On Forums: 9 years 2 months
Thanks: 384008 time(s)
Unknown


(IMG:https://metalarea.org/images/audiocovers/2021_Mar/acov_tid349136_thumb.jpg)

*Artist: 13Th Moon
*Album: Putridarium [ep]
*Year: 2021
*Genre: Black/Death Metal
*Country: Spain (IMG:https://metalarea.org/forum/style_images/flags/Spain.png)
*Format: mp3@CBR320kbps
*Size: 38MB

Tracklist:
1. Putridarium 16:30
******************************
Total playing time: 16:30




Extended info
Shakh'ath Vocals, Guitars, Lyrics
Mal'akh ha-Shoah Guitars (lead)
Sha'arei Maveth Bass, Backing vocals
Neter-khertet Drums


Technical info
(IMG:https://metalarea.org/images/spectrogram/2021_Mar/9787a0e2c5636ba1cba68d3977f9f6d0.png)
Input File: 13th Moon - Putridarium - 01 Putridarium.mp3
Channels : 2
Sample Rate : 44100
Precision : 16-bit
Duration : 00:16:30.12 = 43664336 samples = 74259.1 CDDA sectors
File Size : 39.8M
Bit Rate : 321k
Sample Encoding: MPEG audio (layer I, II or III)
Comments :
Title=Putridarium
Artist=13th Moon
Album=Putridarium
Tracknumber=1
Year=2021



Register


Go to the top of the page
  Insert nick Quick quote
+Quote Post
 
Start new topic
Replies (1 - 7)
post Apr 1 2021, 10:55:55
Post #2

Black Metal War
***********
Group: Металариец
Posts: 1,818
Releases: 0
From: R'lyeh
On Forums: 4 years 7 months
Thanks: 2372 time(s)
Poland


13th Moon is one of these bands who wear hoods, light candles, put some bones and goat skull on ritual table and chant sinister Occult hymns. They are very good and this EP is an excellent Occult Black/Death Metal. (IMG:style_emoticons/default/true_black.gif)

Guest vocals by Old Coffin Spirit (Bestial Raids, Doombringer, Venefices) and Mark of the Devil (Cultes des Ghoules, Death Like Mass, Sodality).


Go to the top of the page
  Insert nick Quick quote
+Quote Post
post Apr 1 2021, 12:41:48
Post #3

Group: Дух
Posts: 5
Releases: 0
On Forums: 9 years 1 month
Thanks: 2 time(s)
Switzerland


QUOTE(Antichrist @ Apr 1 2021, 11:55:55) *
13th Moon is one of these bands who wear hoods, light candles, put some bones and goat skull on ritual table and chant sinister Occult hymns. They are very good and this EP is an excellent Occult Black/Death Metal. (IMG:style_emoticons/default/true_black.gif)

Guest vocals by Old Coffin Spirit (Bestial Raids, Doombringer, Venefices) and Mark of the Devil (Cultes des Ghoules, Death Like Mass, Sodality).

I read Mark of the devil, i instantly DL!
Go to the top of the page
  Insert nick Quick quote
+Quote Post
post Apr 1 2021, 17:55:51
Post #4

Group: Подсевший
Posts: 10
Releases: 0
On Forums: 5 years 5 months
Thanks: 6 time(s)
Belarus


шикарный блек 10+


Thanks:
(1) mondlicht,
Go to the top of the page
  Insert nick Quick quote
+Quote Post
post Apr 2 2021, 18:05:29
Post #5

Три Литра
***
Group: Завсегдатай
Posts: 222
Releases: 0
On Forums: 6 months 3 days
Thanks: 193 time(s)
Russian Federation


Шикарно звучащий оккультный Блэко Дэт на плотном, сочном саунде. Гитарная часть и вокалы создают обскурную и богохульную атмосферу. Все шестнадцать с половиной минут звучат очень целостно, композиторски грамотно и просто мощно! Такие произведения заслуживают своего почетного места в коллекции на полочке и не однократного прослушивания на аппаратуре.


Go to the top of the page
  Insert nick Quick quote
+Quote Post
post Apr 8 2021, 15:38:08
Post #6

De Mysteriis Dom Sathanas
**************
Group: Металариец
Posts: 4,229
Releases: 63
From: Doom
On Forums: 13 years 1 week
Thanks: 3629 time(s)
Russian Federation


Мужики как-всегда не подкачали! Оккультный козло блэк/дэт! Одни из лучших на современной сцене в данном стиле. Прослушал всю диско - все в таком же стиле (IMG:style_emoticons/default/true_black.gif) (IMG:style_emoticons/default/pray.gif)


Thanks:
(1) Occultas,
Go to the top of the page
  Insert nick Quick quote
+Quote Post
post Apr 15 2021, 07:11:59
Post #7

добрый мизантроп
**************
Group: Металариец
Posts: 2,276
Releases: 1
From: Минск
On Forums: 10 years 8 months
Thanks: 1056 time(s)
Madagascar


Orthodox black by lyrics and classic-2nd wave slow black by music. Music is perfect. 9/10.
Go to the top of the page
  Insert nick Quick quote
+Quote Post
post Apr 26 2021, 14:41:45
Post #8

I hate you all
**************
Group: Металариец
Posts: 2,620
Releases: 82
From: Ukraine
On Forums: 14 years 2 months
Thanks: 6663 time(s)
Ukraine


Отменнен как и всегда у этой команды !!!


Thanks:
(1) Metalass,
Go to the top of the page
  Insert nick Quick quote
+Quote Post

Reply to this topicStart new topic
2 User(s) are reading this topic (2 Guests and 0 Anonymous Users)
0 Members:

 



- Lo-Fi Version Support form
Copyrights and abuse reports form
Time is now: 24th July 2021 - 10:01:15