Welcome Guest ( Log In | Register )

> Wode - Burn In Many Mirrors (2021), Black Metal (D4)
post Apr 1 2021, 13:40:34
Post #1

Правь статус, ####!111
**************
Group: Металариец
Posts: 27,441
Releases: 19922
From: Г.Харьков
On Forums: 9 years 4 months
Thanks: 402230 time(s)
Unknown


(IMG:https://metalarea.org/images/audiocovers/2021_Apr/acov_tid349156_thumb.jpg)

*Artist: Wode
*Album: Burn In Many Mirrors
*Year: 2021
*Genre: Black Metal
*Country: United Kingdom (IMG:https://metalarea.org/forum/style_images/flags/United%20Kingdom.png)
*Format: mp3@CBR320kbps
*Size: 90MB

Tracklist:
1. Lunar Madness 06:12
2. Serpent's Coil 05:09
3. Fire in the Hills 06:48
4. Sulphuric Glow 04:43
5. Vanish Beneath 06:24
6. Streams of Rapture (I, II, III) 09:53
******************************
Total playing time: 39:09



Preview 3

Extended info
E.T. Bass
See also: NASDAQ
T.H. Drums, Vocals
See also: Aggressive Perfector, Heavy Sentence, Under the Horns, ex-Stranger Son of WB, ex-The Sonar Yen
M.C. Guitars, Vocals
See also: Aggressive Perfector
D. Shaw Guitars (2017-present)
See also: Aggressive Perfector, Under the Horns, ex-Pine Barrens, ex-Beecher, ex-The Ergon Carousel


Technical info
(IMG:https://metalarea.org/images/spectrogram/2021_Apr/05073ecdee7fcb94d39503420931fae2.png)
Input File: 06 Streams of Rapture (I II III).mp3
Channels : 2
Sample Rate : 44100
Precision : 16-bit
Duration : 00:09:53.09 = 26155269 samples = 44481.8 CDDA sectors
File Size : 23.7M
Bit Rate : 320k
Sample Encoding: MPEG audio (layer I, II or III)
Comments :
Title=Streams of Rapture (I, II, III)
Artist=Wode
Album=Burn in Many Mirrors
Tracknumber=06/06
Year=2021-21-20
Discnumber=1/1



Register


Go to the top of the page
  Insert nick Quick quote
+Quote Post
 
Start new topic
Replies (1 - 7)
post Apr 20 2021, 14:03:17
Post #2

добрый мизантроп
**************
Group: Металариец
Posts: 2,394
Releases: 1
From: Менск
On Forums: 10 years 10 months
Thanks: 1081 time(s)
Madagascar


https://w1.musify.club/release/wode-burn-in...rs-2021-1470381


Thanks:
Go to the top of the page
  Insert nick Quick quote
+Quote Post
post Apr 20 2021, 14:07:10
Post #3

королева бала
*******
Group: Металариец
Posts: 753
Releases: 0
On Forums: 14 years 5 months
Thanks: 551 time(s)
Russian Federation


Крутой альбом, рокенрол!
Go to the top of the page
  Insert nick Quick quote
+Quote Post
post Apr 20 2021, 16:00:26
Post #4
BAN
Banned till
Feb 5 2295, 13:05:59



Anyone flac (img cue log scans) or bandcamp version 320kbps? Thanks (IMG:style_emoticons/default/smile1.gif)
Go to the top of the page
  Insert nick Quick quote
+Quote Post
post Apr 21 2021, 13:44:58
Post #5

добрый мизантроп
**************
Group: Металариец
Posts: 2,394
Releases: 1
From: Менск
On Forums: 10 years 10 months
Thanks: 1081 time(s)
Madagascar


хз, "блэк" как в Edge of Sanity - Crimson (IMG:style_emoticons/default/hmm.gif)
Go to the top of the page
  Insert nick Quick quote
+Quote Post
post Apr 21 2021, 16:25:03
Post #6

0%Tolerance
**********
Group: Металариец
Posts: 1,325
Releases: 0
On Forums: 9 years 1 week
Thanks: 235 time(s)
Unknown


Околоблэк, далеко около. (IMG:style_emoticons/default/1488.gif)
На разок прогнать норм.
Go to the top of the page
  Insert nick Quick quote
+Quote Post
post Apr 22 2021, 05:00:51
Post #7

кручу наждак
**************
Group: Металариец
Posts: 5,136
Releases: 104
From: Самара
On Forums: 11 years 4 months
Thanks: 4125 time(s)
Russian Federation


Во многих моментах это больше похоже на дэт-метал, а зачастую еще и с прогово-авангардными финтифлюшками. На мой вкус, перемудрили.
Go to the top of the page
  Insert nick Quick quote
+Quote Post
post Apr 22 2021, 14:44:49
Post #8

добрый мизантроп
**************
Group: Металариец
Posts: 2,394
Releases: 1
From: Менск
On Forums: 10 years 10 months
Thanks: 1081 time(s)
Madagascar


Блэк у них как г-но, что бы с ним не смешал, получается блэк. 90% прог дэта и 10% блэка = блэк х)
Go to the top of the page
  Insert nick Quick quote
+Quote Post

Reply to this topicStart new topic
2 User(s) are reading this topic (2 Guests and 0 Anonymous Users)
0 Members:

 



- Lo-Fi Version Support form
Copyrights and abuse reports form
Time is now: 27th September 2021 - 04:30:18