Welcome Guest ( Log In | Register )

> Releases Upload / Добавление релизов

Добавить релиз тут / Click here to add release
Рекомендованные обменники / Recommended file shares

> Apocryphon - Nocturnean (2021), Melodic Black Metal (D5)
post Apr 1 2021, 23:04:05
Post #1

Правь статус, ####!111
**************
Group: Металариец
Posts: 25,974
Releases: 18630
From: Г.Харьков
On Forums: 8 years 11 months
Thanks: 368889 time(s)
Unknown


(IMG:https://metalarea.org/images/audiocovers/2021_Apr/acov_tid349183_thumb.jpg)

*Artist: Apocryphon
*Album: Nocturnean
*Year: 2021
*Genre: Melodic Black Metal
*Country: Sweden (IMG:https://metalarea.org/forum/style_images/flags/Sweden.png)
*Format: mp3@CBR320kbps
*Size: 98MB

Tracklist:
01. I, Deviator
02. Halcyon Void
03. Martyrion (mortis divina)
04. Nocturnean
05. Monoliths
06. Atlas Internus
07. The Imperial Entropy
08. Obsidian Oblivion
******************************
Total playing time: 41:36



Extended info
Henrik Ohlsson Everything (2018-present)
See also: Beyond the Katakomb, Scar Symmetry, Altered Aeon, ex-Adversary, ex-Legia, ex-Matricide, ex-Mutant, ex-Thrawn, Both of Me, ex-Diabolical, ex-Theory in Practice


Technical info
(IMG:https://metalarea.org/images/spectrogram/2021_Apr/6dc0d37acd466e774618a9a46cc1f884.png)
Input File: 06 Atlas Internus.mp3
Channels : 2
Sample Rate : 44100
Precision : 16-bit
Duration : 00:05:47.97 = 15345477 samples = 26097.8 CDDA sectors
File Size : 14.3M
Bit Rate : 328k
Sample Encoding: MPEG audio (layer I, II or III)
Comments :
Title=Atlas Internus
Artist=Apocryphon
Album=Nocturnean
Tracknumber=6/8
Year=2021-21-20
Genre=Metal
Discnumber=1/1



Register


Go to the top of the page
  Insert nick Quick quote
+Quote Post
 
Start new topic
Replies (1 - 3)
post Apr 2 2021, 07:51:07
Post #2

MDM-Thrash Metal
**************
Group: Металариец
Posts: 10,305
Releases: 1226
From: Одесса
On Forums: 13 years 8 months
Thanks: 30005 time(s)
Ukraine


Шо, еще один? 3 месяца назад только ж выходил опус, при чем, дрянь полнейшая.
Go to the top of the page
  Insert nick Quick quote
+Quote Post
post Apr 6 2021, 00:19:44
Post #3

Пять Литров
*****
Group: Металариец
Posts: 425
Releases: 72
From: italy
On Forums: 12 years 9 months
Thanks: 1598 time(s)
Italy


(IMG:style_emoticons/default/22.gif)
Go to the top of the page
  Insert nick Quick quote
+Quote Post
post Apr 6 2021, 12:32:58
Post #4

Ъ
**************
Group: Металариец
Posts: 10,574
Releases: 9
On Forums: 12 years 3 months
Thanks: 2166 time(s)
Sweden


Третьесорт.

PS Почему вместо нового SS чел занимается такими высерами, может кто разъяснить что там у них за движ.
Go to the top of the page
  Insert nick Quick quote
+Quote Post

Reply to this topicStart new topic
1 User(s) are reading this topic (1 Guests and 0 Anonymous Users)
0 Members:

 



- Lo-Fi Version Support form
Copyrights and abuse reports form
Time is now: 5th May 2021 - 21:53:40