Welcome Guest ( Log In | Register )

> Releases Upload / Добавление релизов

Добавить релиз тут / Click here to add release
Рекомендованные обменники / Recommended file shares

> Olhava - Frozen Bloom (2021), Atmospheric Black Metal (D4)
post Apr 2 2021, 08:36:50
Post #1

любитель шведской buzzzzy'ны
**************
Group: Металариец
Posts: 7,260
Releases: 350
From: На берегах Оки и Волги одновремеННо
On Forums: 14 years 4 months
Thanks: 23588 time(s)
Russian Federation


(IMG:https://metalarea.org/images/audiocovers/2021_Apr/acov_tid349200_thumb.jpeg)

*Artist: Olhava
*Album: Frozen Bloom
*Year: 2021
*Genre: Atmospheric Black Metal
*Country: Russian Federation (IMG:https://metalarea.org/forum/style_images/flags/Russian%20Federation.png)
*Format: mp3@CBR320kbps
*Size: 140MB

Tracklist:
1. The Queen of Fields 20:15
2. Adrift 07:41
3. Frozen Bloom I 14:43
4. Frozen Bloom II 16:22
******************************
Total playing time: 59:01



Technical info
(IMG:https://metalarea.org/images/spectrogram/2021_Apr/dfaef81eae222f6f9364e2c4d0bdd35a.png)
Input File: 01 - Olhava - The Queen Of Fields.mp3
Channels : 2
Sample Rate : 44100
Precision : 16-bit
Duration : 00:20:15.86 = 53619338 samples = 91189.4 CDDA sectors
File Size : 48.9M
Bit Rate : 322k
Sample Encoding: MPEG audio (layer I, II or III)
Comments :
Title=The Queen Of Fields
Artist=Olhava
Album=Frozen Bloom
Tracknumber=01
Year=2021
Genre=Atmospheric Black Metal



Register


Go to the top of the page
  Insert nick Quick quote
+Quote Post
 
Start new topic
Replies (1 - 8)
post Apr 3 2021, 16:14:48
Post #2

زرنيخ
**************
Group: Металариец
Posts: 2,322
Releases: 3
From: Санкт-Петербург
On Forums: 6 years 1 month
Thanks: 2961 time(s)
Russian Federation


Трижды вчера обмазался. Хитовости прошлого нет, но буду ещё кусать неоднократно.
Go to the top of the page
  Insert nick Quick quote
+Quote Post
post Apr 3 2021, 19:44:36
Post #3

Мегаманьяк
***********
Group: Металариец
Posts: 1,552
Releases: 0
From: Мелитополь
On Forums: 13 years 3 months
Thanks: 1147 time(s)
Ukraine


Это те что про Ладогу были?
Go to the top of the page
  Insert nick Quick quote
+Quote Post
post Apr 3 2021, 19:52:11
Post #4

Ёлд ХеллоВяйне
Group Icon
Group: V.I.P
Posts: 31,469
Releases: 144
From: Питер
On Forums: 14 years 6 months
Thanks: 19561 time(s)
Russian Federation


QUOTE(Penetralia @ 3rd April 2021 - 21:44:36) *
Это те что про Ладогу были?


Так точно. Были и есть.
Go to the top of the page
  Insert nick Quick quote
+Quote Post
post Apr 6 2021, 11:04:49
Post #5

градусы контрастов
**************
Group: Металариец
Posts: 4,826
Releases: 0
On Forums: 5 years 3 months
Thanks: 3122 time(s)
Unknown


всё очень хорошо, но долго такое слушать невозможно)
Go to the top of the page
  Insert nick Quick quote
+Quote Post
post Apr 6 2021, 14:40:46
Post #6

Group: Подсевший
Posts: 38
Releases: 0
On Forums: 3 years 3 months
Thanks: 11 time(s)
Russian Federation


отличная зефирка, продолжение прошлогоднего альбома.
Go to the top of the page
  Insert nick Quick quote
+Quote Post
post Apr 6 2021, 16:47:43
Post #7

brutalcesar
**************
Group: Металариец
Posts: 18,167
Releases: 70
From: Рязань
On Forums: 12 years 3 months
Thanks: 10194 time(s)
Russian Federation


ЦИТАТА(ent404 @ Apr 6 2021, 13:04:49) *
всё очень хорошо, но долго такое слушать невозможно)

Ну, такая музыка всегда и исключительно под настроение
Go to the top of the page
  Insert nick Quick quote
+Quote Post
post Apr 7 2021, 19:50:39
Post #8

кручу наждак
**************
Group: Металариец
Posts: 4,918
Releases: 104
From: Самара
On Forums: 10 years 11 months
Thanks: 3952 time(s)
Russian Federation


Давно не слежу за атмоблэковой сценой, точнее с 2015 года, когда Андерс из Blodsband завязал с музыкой, но сейчас что, дефицит такого незатейливого чеса с задвинутым вокалом?
Осилил минут 40 и выключил.
Go to the top of the page
  Insert nick Quick quote
+Quote Post
post Apr 7 2021, 20:34:36
Post #9

Семь Литров
*******
Group: Металариец
Posts: 708
Releases: 32
From: Санкт-Петербург
On Forums: 14 years 11 months
Thanks: 2187 time(s)
Russian Federation


ЦИТАТА(judaz @ 7th April 2021 - 21:50:39) *
Осилил минут 40 и выключил.

Выносливый ты, однако, а я гораздо раньше сошел с дистанции, хотя после похвального отзыва от Daale возлагал на альбом определенные надежды.
Go to the top of the page
  Insert nick Quick quote
+Quote Post

Reply to this topicStart new topic
1 User(s) are reading this topic (1 Guests and 0 Anonymous Users)
0 Members:

 



- Lo-Fi Version Support form
Copyrights and abuse reports form
Time is now: 5th May 2021 - 23:56:42