Welcome Guest ( Log In | Register )

> 

Здесь релизы с живыми прямыми ссылками на lossless

> Everson Poe - Grief (2021), Post-Black Metal (D4)
post Apr 2 2021, 10:47:06
Post #1

Время Мары
**************
Group: Металариец
Posts: 3,239
Releases: 471
From: Харьков
On Forums: 12 years 2 weeks
Thanks: 9664 time(s)
Ukraine


(IMG:http://metalarea.org/images/audiocovers/2021_Apr/acov_tid349203_thumb.jpg)

*Artist: Everson Poe
*Album: Grief
*Year: 2021
*Genre: Post-Black Metal
*Country: United States (IMG:http://metalarea.org/forum/style_images/flags/United%20States.png)
*Format: mp3@CBR320kbps
*Size: 112MB

Tracklist:
01. Denial 10:43
02. Anger 03:45
03. Bargaining 10:07
04. Depression 14:03
05. Acceptance 10:15
******************************
Total playing time: 48:53

Technical info
(IMG:http://metalarea.org/images/spectrogram/2021_Apr/74dc74009865ff2c4770fa200cd0884e.png)
Input File: 02 - Anger.mp3
Channels : 2
Sample Rate : 44100
Precision : 16-bit
Duration : 00:03:44.85 = 9915929 samples = 16863.8 CDDA sectors
File Size : 9.07M
Bit Rate : 323k
Sample Encoding: MPEG audio (layer I, II or III)
Comments :
Title=Anger
Artist=Everson Poe
Album=Grief
Tracknumber=2
Year=2021
Discnumber=1/1



Register


Go to the top of the page
  Insert nick Quick quote
+Quote Post
 
Start new topic
Replies (1 - 5)
post Apr 3 2021, 15:41:37
Post #2

Dark Ambient Shoujo
**********
Group: Металариец
Posts: 1,380
Releases: 2
On Forums: 12 years 5 months
Thanks: 818 time(s)
Russian Federation




Thanks:
Go to the top of the page
  Insert nick Quick quote
+Quote Post
post Apr 3 2021, 18:45:46
Post #3

Пять Литров
*****
Group: Металариец
Posts: 462
Releases: 0
From: Мурманск
On Forums: 11 years 2 months
Thanks: 612 time(s)
Russian Federation




Thanks:
Go to the top of the page
  Insert nick Quick quote
+Quote Post
post May 23 2021, 12:22:25
Post #4

Group Icon
Group: S-moderation team
Posts: 21,178
Releases: 1443
From: Zagreb
On Forums: 10 years 3 months
Thanks: 97656 time(s)
Croatia


Register


Thanks:
(1) Olethros,
Go to the top of the page
  Insert nick Quick quote
+Quote Post
post May 23 2021, 12:23:48
Post #5

Два Литра
**
Group: Завсегдатай
Posts: 118
Releases: 0
On Forums: 1 month 3 weeks
Thanks: 206 time(s)
Unknown


Register


Thanks:
(1) Olethros,
Go to the top of the page
  Insert nick Quick quote
+Quote Post
post May 23 2021, 12:26:56
Post #6

Ледоруб
**************
Group: Металариец
Posts: 28,216
Releases: 0
From: Санкт-Петербург
On Forums: 11 years 9 months
Thanks: 10186 time(s)
Russian Federation


На что похоже?
Go to the top of the page
  Insert nick Quick quote
+Quote Post

Reply to this topicStart new topic
2 User(s) are reading this topic (2 Guests and 0 Anonymous Users)
0 Members:

 



- Lo-Fi Version Support form
Copyrights and abuse reports form
Time is now: 23rd June 2021 - 22:02:39