Welcome Guest ( Log In | Register )

> 

Здесь релизы с живыми прямыми ссылками на lossless

> Myrvandrer - Lenge Leve Livet (2021), Atmospheric Black Metal
post Apr 3 2021, 23:54:43
Post #1

Время Мары
**************
Group: Металариец
Posts: 3,242
Releases: 473
From: Харьков
On Forums: 12 years 1 month
Thanks: 9720 time(s)
Ukraine


(IMG:http://metalarea.org/images/audiocovers/2021_Apr/acov_tid349268_thumb.jpg)

*Artist: Myrvandrer
*Album: Lenge Leve Livet
*Year: 2021
*Genre: Atmospheric Black Metal
*Country: Norway (IMG:http://metalarea.org/forum/style_images/flags/Norway.png)
*Format: mp3@CBR320kbps
*Size: 82MB

Tracklist:
01. Fenjas Threnodi 03:51
02. In Love (In Leaving) 05:39
03. Ferd 04:09
04. La Meg Hvile Over Sjøen 06:27
05. Ei Hulders Vuggevise 04:04
06. Fra Silkeseng Til Sot 05:18
07. Lenge Leve Livet 05:49
******************************
Total playing time: 35:17

Technical info
(IMG:http://metalarea.org/images/spectrogram/2021_Apr/3887ae49955eb44347d5509565ffdc89.png)
Input File: 02 - In Love (In Leaving).mp3
Channels : 2
Sample Rate : 44100
Precision : 16-bit
Duration : 00:05:39.09 = 14953913 samples = 25431.8 CDDA sectors
File Size : 13.7M
Bit Rate : 322k
Sample Encoding: MPEG audio (layer I, II or III)
Comments :
Title=In Love (In Leaving)
Artist=Myrvandrer
Album=Lenge Leve Livet
Tracknumber=2
Year=2021
Discnumber=1/1



Register


Go to the top of the page
  Insert nick Quick quote
+Quote Post
 
Start new topic
Replies (1 - 5)
post Apr 4 2021, 04:14:44
Post #2

Маньяк
**********
Group: Металариец
Posts: 1,333
Releases: 470
On Forums: 10 years 8 months
Thanks: 10128 time(s)
Italy




Go to the top of the page
  Insert nick Quick quote
+Quote Post
post Apr 4 2021, 07:48:10
Post #3

Ёлд ХеллоВяйне
Group Icon
Group: V.I.P
Posts: 31,869
Releases: 144
From: Питер
On Forums: 14 years 9 months
Thanks: 19937 time(s)
Russian Federation


Пост-блэк/пост-митол, большей частью инструментальный. Оптимистичный. Но хороший.


Thanks:
(1) ShmiT,
Go to the top of the page
  Insert nick Quick quote
+Quote Post
post Apr 4 2021, 13:02:57
Post #4

Group: Дух
Posts: 1
Releases: 0
On Forums: 3 months 4 weeks
Thanks: 5 time(s)
Azerbaijan


Никому не говори



yux3-e3n6
yme5-uwvk
y86f-v4g8
tk3x-garn
tyvj-uncj
2t98-ej4y
6j22-kjvp
ubl5-6kt2
vasg-kkuh
f9qn-y9mv
l3rx-7z98


Go to the top of the page
  Insert nick Quick quote
+Quote Post
post Apr 20 2021, 16:11:43
Post #5

brutalcesar
**************
Group: Металариец
Posts: 18,236
Releases: 71
From: Рязань
On Forums: 12 years 6 months
Thanks: 10292 time(s)
Russian Federation


Пост блэк рог! С такой светлой атмосферой
Хорошо же
Go to the top of the page
  Insert nick Quick quote
+Quote Post
post May 23 2021, 10:29:04
Post #6

Литр
*
Group: Подсевший
Posts: 70
Releases: 1
On Forums: 13 years 11 months
Thanks: 88 time(s)
Russian Federation


Register


Thanks:
(1) Mencae77,
Go to the top of the page
  Insert nick Quick quote
+Quote Post

Reply to this topicStart new topic
2 User(s) are reading this topic (2 Guests and 0 Anonymous Users)
0 Members:

 



- Lo-Fi Version Support form
Copyrights and abuse reports form
Time is now: 2nd August 2021 - 12:35:09