Welcome Guest ( Log In | Register )

> Releases Upload / Добавление релизов

Добавить релиз тут / Click here to add release
Рекомендованные обменники / Recommended file shares

> Terrörhammer - Under The Unholy Command (2015), Blackened Speed/Thrash Metal
post Apr 4 2021, 14:53:38
Post #1

Правь статус, ####!111
**************
Group: Металариец
Posts: 26,052
Releases: 18700
From: Г.Харьков
On Forums: 9 years 5 days
Thanks: 370755 time(s)
Unknown


(IMG:https://metalarea.org/images/audiocovers/2021_Apr/acov_tid349290_thumb.jpg)

*Artist: Terrörhammer
*Album: Under The Unholy Command
*Year: 2015
*Genre: Blackened Speed/Thrash Metal
*Country: Serbia (IMG:https://metalarea.org/forum/style_images/flags/Serbia.png)
*Format: mp3@CBR320kbps
*Size: 86MB

Tracklist:
1. Catacombs of Pandemonium 02:00 instrumental
2. Necro Speed Megalomania 03:40
3. Final Opression 03:15
4. Blood for the Countess 04:06
5. Hell Commando 04:05
6. Dawn of the Pentagram 04:16
7. Graveyard Witch 05:12
8. Atomic Overload 03:27
9. Church of Sodomy 05:19
******************************
Total playing time: 35:20





Extended info
Debiłczyna Drums
See also: Chemical Tomb, Prisoner, Sigma Epsilon, Contaminated Mind, Ziggurat
Pentagramator The Helltyrant Guitars (2010-present), Vocals (2013-present)
See also: All My Sins, Dead Shell of Universe, Green Mantis, Ulvdalir (live), ex-Bethor, ex-Kawir, ex-Triumfall, ex-Zaklan
U-Predator 47 Bass (2018-present)
See also: Khargash, Obscured, ex-Bloodline, ex-Neman, Haematuria, No Regrets, T.W.A.T., ex-Bane, ex-M.A.D: Goya, ex-Paimonia, ex-Jane Dark (live), ex-Pseudo



Technical info
(IMG:https://metalarea.org/images/spectrogram/2021_Apr/7286a9d8b67df5606f284fe740eda28e.png)
Input File: 07 Graveyard Witch.mp3
Channels : 2
Sample Rate : 44100
Precision : 16-bit
Duration : 00:05:13.72 = 13835096 samples = 23529.1 CDDA sectors
File Size : 13.2M
Bit Rate : 336k
Sample Encoding: MPEG audio (layer I, II or III)
Comments :
Title=Graveyard Witch
Artist=Terrörhammer
Album=Under the Unholy Command
Tracknumber=7/9
Year=2015-15-20
Genre=Metal
Discnumber=1/1



Register


Go to the top of the page
  Insert nick Quick quote
+Quote Post
 
Start new topic
Replies (1 - 1)
post Apr 8 2021, 09:33:59
Post #2

0%Tolerance
*********
Group: Металариец
Posts: 967
Releases: 0
On Forums: 8 years 7 months
Thanks: 175 time(s)
Unknown


Довольно простецкий рогенролл с пластмассовыми гетарками. На разок-другой -- угореть прокатит, если получится.
Go to the top of the page
  Insert nick Quick quote
+Quote Post

Reply to this topicStart new topic
1 User(s) are reading this topic (1 Guests and 0 Anonymous Users)
0 Members:

 



- Lo-Fi Version Support form
Copyrights and abuse reports form
Time is now: 15th May 2021 - 20:41:26