Welcome Guest ( Log In | Register )

> Hellfire - Lobotomized By Holy Crucifix (2021), Black/Death Metal (D)
post Apr 5 2021, 12:41:47
Post #1

Правь статус, ####!111
**************
Group: Металариец
Posts: 27,365
Releases: 19855
From: Г.Харьков
On Forums: 9 years 4 months
Thanks: 399835 time(s)
Unknown


(IMG:https://metalarea.org/images/audiocovers/2021_Apr/acov_tid349309_thumb.jpg)

*Artist: Hellfire
*Album: Lobotomized By Holy Crucifix
*Year: 2021
*Genre: Black/Death Metal
*Country: Ukraine (IMG:https://metalarea.org/forum/style_images/flags/Ukraine.png)
*Format: mp3@CBR320kbps
*Size: 101MB

Tracklist:
1. Goathorn Penetration 04:36
2. Smell of Perdition 03:45
3. Total Human Nullification 04:37
4. Demonic Possesion 03:21
5. Buried in A Cemetery 04:12
6. Soulburn Infestation 03:39
7. Goatspell Blasphemy 03:44
8. Baptized by Pentagram 04:12
9. Lobotomized by Holy Crucifix 04:12
10. Field Of Screams 02:48
11. Azazel 05:01
******************************
Total playing time: 44:07




Extended info
Necrobaphomet Bass (2014-present)
See also: Paranomia, ex-Крест
Karagh Guitars, Vocals (2014-present)
See also: Paranomia, Kremin14, Runa, ex-MoreGore, ex-U-235, ex-Cold of Tombstone
Tank Drums (2019-present)
See also: Freshcut, MoreGore, ex-Paranomia, ex-Defimor


Technical info
(IMG:https://metalarea.org/images/spectrogram/2021_Apr/51f017edfd78e4133c0004c2089e8a4f.png)
Input File: 11. Azazel.mp3
Channels : 2
Sample Rate : 44100
Precision : 16-bit
Duration : 00:05:01.33 = 13288653 samples = 22599.8 CDDA sectors
File Size : 12.1M
Bit Rate : 320k
Sample Encoding: MPEG audio (layer I, II or III)
Comments :
Title=Azazel
Artist=Hellfire
Album=Lobotomized by Holy Crucifix
Tracknumber=11
Year=2021



Register


Go to the top of the page
  Insert nick Quick quote
+Quote Post
 
Start new topic
Replies (1 - 5)
post Apr 7 2021, 07:44:33
Post #2

Маньяк
**********
Group: Металариец
Posts: 1,096
Releases: 0
From: Новосибирск
On Forums: 12 years 3 weeks
Thanks: 302 time(s)
Russian Federation


ЦИТАТА
Tank Drums


(IMG:style_emoticons/default/1488.gif)
Go to the top of the page
  Insert nick Quick quote
+Quote Post
post Apr 7 2021, 12:16:14
Post #3

De Mysteriis Dom Sathanas
**************
Group: Металариец
Posts: 4,263
Releases: 63
From: Doom
On Forums: 13 years 2 months
Thanks: 3655 time(s)
Russian Federation


19 Хэллфайеров в архивах.... (IMG:style_emoticons/default/1488.gif)
Go to the top of the page
  Insert nick Quick quote
+Quote Post
post Apr 17 2021, 13:38:55
Post #4

Group: Дух
Posts: 7
Releases: 0
On Forums: 4 years 3 months
Thanks: 0 time(s)
Czech Republic


Please flac. Thx
Go to the top of the page
  Insert nick Quick quote
+Quote Post
post Apr 17 2021, 14:53:16
Post #5

Литр
*
Group: Подсевший
Posts: 94
Releases: 0
From: Новороссийск
On Forums: 13 years 2 weeks
Thanks: 9 time(s)
Russian Federation


(IMG:https://i2.rozetka.ua/goods/18444610/218137681_images_18444610303.jpg)

Люто прет с него)
Go to the top of the page
  Insert nick Quick quote
+Quote Post
post Apr 26 2021, 04:36:18
Post #6

добрый мизантроп
**************
Group: Металариец
Posts: 2,368
Releases: 1
From: Менск
On Forums: 10 years 10 months
Thanks: 1075 time(s)
Madagascar


Great classic-holocaust black metal, 9/10 (IMG:style_emoticons/default/true_black.gif) (IMG:style_emoticons/default/true_black.gif) (IMG:style_emoticons/default/true_black.gif)


Thanks:
Go to the top of the page
  Insert nick Quick quote
+Quote Post

Reply to this topicStart new topic
2 User(s) are reading this topic (2 Guests and 0 Anonymous Users)
0 Members:

 



- Lo-Fi Version Support form
Copyrights and abuse reports form
Time is now: 19th September 2021 - 17:06:25