Welcome Guest ( Log In | Register )

> Releases Upload / Добавление релизов

Добавить релиз тут / Click here to add release
Рекомендованные обменники / Recommended file shares

 
Reply to this topicStart new topic
> Defecrator - Unholy Hymns Of Bestial Warfare [compilation] (2021), Death/Black Metal (D)
post Apr 6 2021, 06:47:57
Post #1

Правь статус, ####!616
**************
Group: Металариец
Posts: 6,193
Releases: 4695
From: 55°35’N 38°08’E
On Forums: 12 years 10 months
Thanks: 86815 time(s)
Unknown


(IMG:https://metalarea.org/images/audiocovers/2021_Apr/acov_tid349324_thumb.jpg)

*Artist: Defecrator
*Album: Unholy Hymns Of Bestial Warfare [compilation]
*Year: 2021
*Genre: Death/Black Metal
*Country: United States (IMG:https://metalarea.org/forum/style_images/flags/United%20States.png)
*Format: mp3@CBR320kbps
*Size: 125MB

Tracklist:
1.Built Upon Suffering 04:21
2.Vile Apotheosis 03:40
3.Holocaustic Nuclear Rites 02:59
4.Pyrocumulus Baphomet 02:37
5.Praise of Pestilence 03:19
6.Anti-Human Deathcult 04:10
7.Aeonic Totalitarianism 05:11
8.Satanic Martyrdom 04:19
9.Contractionem Diaboli 03:41
10.Thy Infernal Penance 04:22
11.Depredated 03:09
12.Subjugated 04:21
13.Purged 04:10
******************************
Total playing time: 50:19



Technical info
(IMG:https://metalarea.org/images/spectrogram/2021_Apr/de5428973046d7b014452efd505ea36a.png)
Input File: 01 Built Upon Suffering.mp3
Channels : 2
Sample Rate : 44100
Precision : 16-bit
Duration : 00:04:21.87 = 11548423 samples = 19640.2 CDDA sectors
File Size : 10.7M
Bit Rate : 327k
Sample Encoding: MPEG audio (layer I, II or III)
Comments :
Title=Built Upon Suffering
Artist=Defecrator
Album=Unholy Hymns of Bestial Warfare
Tracknumber=1
Year=2021
Genre=Black/Death Metal



Register


Go to the top of the page
  Insert nick Quick quote
+Quote Post

Reply to this topicStart new topic
1 User(s) are reading this topic (1 Guests and 0 Anonymous Users)
0 Members:

 



- Lo-Fi Version Support form
Copyrights and abuse reports form
Time is now: 13th May 2021 - 04:10:05