Welcome Guest ( Log In | Register )

> Releases Upload / Добавление релизов

Добавить релиз тут / Click here to add release
Рекомендованные обменники / Recommended file shares

 
Reply to this topicStart new topic
> Irae - Korona Winter Rehearsal Of Darkness & Evil [live] (2021), Black Metal (D)
post Apr 6 2021, 07:05:58
Post #1

Правь статус, ####!616
**************
Group: Металариец
Posts: 6,193
Releases: 4695
From: 55°35’N 38°08’E
On Forums: 12 years 10 months
Thanks: 86815 time(s)
Unknown


(IMG:https://metalarea.org/images/audiocovers/2021_Apr/acov_tid349325_thumb.jpg)

*Artist: Irae
*Album: Korona Winter Rehearsal Of Darkness & Evil [live]
*Year: 2021
*Genre: Black Metal
*Country: Portugal (IMG:https://metalarea.org/forum/style_images/flags/Portugal.png)
*Format: mp3@CBR320kbps
*Size: 107MB

Tracklist:
1.Nightshade 06:32
2.Black Metal Violador 05:42
3.Ratazanas 05:00
4.A Blaze in the Mist 04:31
5.Between Ruins 05:43
6.Encurralado 06:21
7.O Porco de Satanás 06:51
8.The Return of Darkness & Evil (Bathory cover) 04:59
******************************
Total playing time: 45:39




Technical info
(IMG:https://metalarea.org/images/spectrogram/2021_Apr/6fc032e430e4ddbc636cb01a6c404666.png)
Input File: 01 Nightshade.mp3
Channels : 2
Sample Rate : 44100
Precision : 16-bit
Duration : 00:06:32.10 = 17291434 samples = 29407.2 CDDA sectors
File Size : 15.9M
Bit Rate : 324k
Sample Encoding: MPEG audio (layer I, II or III)
Comments :
Title=Nightshade
Artist=Irae
Album=Korona Winter Rehearsal of Darkness & Evil
Tracknumber=1
Year=2021
Genre=Black Metal



Register


Go to the top of the page
  Insert nick Quick quote
+Quote Post

Reply to this topicStart new topic
1 User(s) are reading this topic (1 Guests and 0 Anonymous Users)
0 Members:

 



- Lo-Fi Version Support form
Copyrights and abuse reports form
Time is now: 13th May 2021 - 03:11:26