Welcome Guest ( Log In | Register )

> Releases Upload / Добавление релизов

Добавить релиз тут / Click here to add release
Рекомендованные обменники / Recommended file shares

 
Reply to this topicStart new topic
> Dirkschneider & The Old Gang - Where The Angels Fly [single] (2021), Heavy Metal
post Apr 6 2021, 12:42:31
Post #1

Правь статус, ####!111
**************
Group: Металариец
Posts: 2,539
Releases: 229
On Forums: 14 years 5 months
Thanks: 6186 time(s)
Unknown


(IMG:http://metalarea.org/images/audiocovers/2021_Apr/acov_tid349337_thumb.jpg)

*Artist: Dirkschneider & The Old Gang
*Album: Where The Angels Fly [single]
*Year: 2021
*Genre: Heavy Metal
*Country: Germany (IMG:http://metalarea.org/forum/style_images/flags/Germany.png)
*Format: mp3@CBR320kbps
*Size: 11MB

Tracklist:
1. Where the Angels Fly 4:57
******************************
Total playing time: 4:57

Extended info


Technical info
(IMG:http://metalarea.org/images/spectrogram/2021_Apr/b79d2c33fb4bf1075c30c365e855ea43.png)
Input File: 01 Where the Angels Fly.mp3
Channels : 2
Sample Rate : 48000
Precision : 16-bit
Duration : 00:04:57.24 = 14267664 samples ~ 22293.2 CDDA sectors
File Size : 11.9M
Bit Rate : 321k
Sample Encoding: MPEG audio (layer I, II or III)
Comments :
Title=Where the Angels Fly
Artist=Dirkschneider & The Old Gang
Album=Where the Angels Fly - Single
Tracknumber=1
Year=2021
Genre=Heavy Metal



Register


Go to the top of the page
  Insert nick Quick quote
+Quote Post

Reply to this topicStart new topic
1 User(s) are reading this topic (1 Guests and 0 Anonymous Users)
0 Members:

 



- Lo-Fi Version Support form
Copyrights and abuse reports form
Time is now: 5th May 2021 - 23:33:16