Welcome Guest ( Log In | Register )

 
Reply to this topicStart new topic
> Omniscience - Dystopian Discourse [ep] (2021), Death/Groove Metal
post Apr 6 2021, 12:51:00
Post #1

Время Мары
**************
Group: Металариец
Posts: 3,242
Releases: 473
From: Харьков
On Forums: 12 years 1 month
Thanks: 9717 time(s)
Ukraine


(IMG:http://metalarea.org/images/audiocovers/2021_Apr/acov_tid349338_thumb.jpg)

*Artist: Omniscience
*Album: Dystopian Discourse [ep]
*Year: 2021
*Genre: Death/Groove Metal
*Country: Mexico (IMG:http://metalarea.org/forum/style_images/flags/Mexico.png)
*Format: mp3@CBR320kbps
*Size: 65MB

Tracklist:
01. World Domination
02. The Detachment of Reason
03. Bring a Breath of Your Own Life
04. Spiral
05. Last Speech...
06. ...of a Hero
******************************
Total playing time: 28:13

Technical info
(IMG:http://metalarea.org/images/spectrogram/2021_Apr/d29e2b180b9201aabeefbf36d46862b0.png)
Input File: 02. The Detachment of Reason.mp3
Channels : 2
Sample Rate : 44100
Precision : 16-bit
Duration : 00:05:05.14 = 13456454 samples = 22885.1 CDDA sectors
File Size : 12.2M
Bit Rate : 320k
Sample Encoding: MPEG audio (layer I, II or III)
Comments :
Title=The Detachment of Reason
Artist=Omniscience
Album=Dystopian Discourse
Tracknumber=02
Year=2021



Register


Go to the top of the page
  Insert nick Quick quote
+Quote Post

Reply to this topicStart new topic
1 User(s) are reading this topic (1 Guests and 0 Anonymous Users)
0 Members:

 



- Lo-Fi Version Support form
Copyrights and abuse reports form
Time is now: 25th July 2021 - 20:43:06