Welcome Guest ( Log In | Register )

> Releases Upload / Добавление релизов

Добавить релиз тут / Click here to add release
Рекомендованные обменники / Recommended file shares

 
Reply to this topicStart new topic
> Drelnoch - Blatant Disregard [demo] (2021), Raw Black Metal
post Apr 6 2021, 13:39:57
Post #1

Правь статус, ####!616
**************
Group: Металариец
Posts: 6,193
Releases: 4695
From: 55°35’N 38°08’E
On Forums: 12 years 10 months
Thanks: 86972 time(s)
Unknown


(IMG:https://metalarea.org/images/audiocovers/2021_Apr/acov_tid349339_thumb.jpg)

*Artist: Drelnoch
*Album: Blatant Disregard [demo]
*Year: 2021
*Genre: Raw Black Metal
*Country: United States (IMG:https://metalarea.org/forum/style_images/flags/United%20States.png)
*Format: mp3@CBR320kbps
*Size: 30MB

Tracklist:
1.Infernal Expansion 04:48
2.Silhouettes 02:56
3.Abhorrent Alchemy 02:24
4.Yellowed Bones 02:11
******************************
Total playing time: 12:19



Technical info
(IMG:https://metalarea.org/images/spectrogram/2021_Apr/34e73d8e6bbdefebba306d8a03334d86.png)
Input File: 01 Infernal Expansion.mp3
Channels : 2
Sample Rate : 44100
Precision : 16-bit
Duration : 00:04:48.65 = 12729289 samples = 21648.5 CDDA sectors
File Size : 11.7M
Bit Rate : 324k
Sample Encoding: MPEG audio (layer I, II or III)
Comments :
Title=Infernal Expansion
Artist=Drelnoch
Album=Blatant Disregard
Tracknumber=1
Year=2021
Genre=Black Metal



Register


Go to the top of the page
  Insert nick Quick quote
+Quote Post

Reply to this topicStart new topic
1 User(s) are reading this topic (1 Guests and 0 Anonymous Users)
0 Members:

 



- Lo-Fi Version Support form
Copyrights and abuse reports form
Time is now: 17th May 2021 - 00:49:15