Welcome Guest ( Log In | Register )

> Releases Upload / Добавление релизов

Добавить релиз тут / Click here to add release
Рекомендованные обменники / Recommended file shares

 
Reply to this topicStart new topic
> Sacred Death - Sacred Death [demo] (2021), Black Metal (D4)
post Apr 6 2021, 13:49:58
Post #1

Правь статус, ####!616
**************
Group: Металариец
Posts: 6,193
Releases: 4695
From: 55°35’N 38°08’E
On Forums: 12 years 10 months
Thanks: 86972 time(s)
Unknown


(IMG:https://metalarea.org/images/audiocovers/2021_Apr/acov_tid349340_thumb.jpg)

*Artist: Sacred Death
*Album: Sacred Death [demo]
*Year: 2021
*Genre: Black Metal
*Country: United States (IMG:https://metalarea.org/forum/style_images/flags/United%20States.png)
*Format: mp3@CBR320kbps
*Size: 24MB

Tracklist:
1.Unholy Onslaught (ft. Mörder) 03:45
2.The Bitter Taste of Mortality 02:43
3.Condemned to Eternal Suffering 04:02
******************************
Total playing time: 10:30



Technical info
(IMG:https://metalarea.org/images/spectrogram/2021_Apr/8fc59e3fc9a6f3fecbc50e011b5f7c0f.png)
Input File: 01 Unholy Onslaught (ft. Mörder).mp3
Channels : 2
Sample Rate : 44100
Precision : 16-bit
Duration : 00:03:45.95 = 9964307 samples = 16946.1 CDDA sectors
File Size : 9.07M
Bit Rate : 321k
Sample Encoding: MPEG audio (layer I, II or III)
Comments :
Title=Unholy Onslaught (ft. Mörder)
Artist=Sacred Death
Album=Sacred Death
Tracknumber=1
Year=2021
Genre=Black Metal



Register


Go to the top of the page
  Insert nick Quick quote
+Quote Post

Reply to this topicStart new topic
1 User(s) are reading this topic (1 Guests and 0 Anonymous Users)
0 Members:

 



- Lo-Fi Version Support form
Copyrights and abuse reports form
Time is now: 17th May 2021 - 02:14:23