Welcome Guest ( Log In | Register )

> Releases Upload / Добавление релизов

Добавить релиз тут / Click here to add release
Рекомендованные обменники / Recommended file shares

 
Reply to this topicStart new topic
> Halo Of Miasma - Triumphant Afterglow [ep] (2021), Black Metal
post Apr 6 2021, 14:01:38
Post #1

Правь статус, ####!616
**************
Group: Металариец
Posts: 6,193
Releases: 4695
From: 55°35’N 38°08’E
On Forums: 12 years 10 months
Thanks: 86972 time(s)
Unknown


(IMG:https://metalarea.org/images/audiocovers/2021_Apr/acov_tid349341_thumb.jpg)

*Artist: Halo Of Miasma
*Album: Triumphant Afterglow [ep]
*Year: 2021
*Genre: Black Metal
*Country: Poland (IMG:https://metalarea.org/forum/style_images/flags/Poland.png)
*Format: mp3@CBR320kbps
*Size: 50MB

Tracklist:
1.Frigg's Funeral Pyre 01:17
2.Triumphant Afterglow 05:33
3.Psychedelic Midwinter 06:09
4.Love And Terror Cult 03:26
5.Wyrd Reconstruction 01:49
6.Häxan 03:23
******************************
Total playing time: 21:37



Technical info
(IMG:https://metalarea.org/images/spectrogram/2021_Apr/def9df541dedf69ba1b78ed29e8309d2.png)
Input File: 02 Triumphant Afterglow.mp3
Channels : 2
Sample Rate : 44100
Precision : 16-bit
Duration : 00:05:33.08 = 14688916 samples = 24981.1 CDDA sectors
File Size : 13.4M
Bit Rate : 323k
Sample Encoding: MPEG audio (layer I, II or III)
Comments :
Title=Triumphant Afterglow
Artist=Halo Of Miasma
Album=Triumphant Afterglow
Tracknumber=2
Year=2021
Genre=Black Metal



Register


Go to the top of the page
  Insert nick Quick quote
+Quote Post

Reply to this topicStart new topic
1 User(s) are reading this topic (1 Guests and 0 Anonymous Users)
0 Members:

 



- Lo-Fi Version Support form
Copyrights and abuse reports form
Time is now: 17th May 2021 - 02:10:14