Welcome Guest ( Log In | Register )

> Releases Upload / Добавление релизов

Добавить релиз тут / Click here to add release
Рекомендованные обменники / Recommended file shares

 
Reply to this topicStart new topic
> Nekrofília - Lángokban Elveszejtve (2021), Black Metal (D)
post Apr 6 2021, 14:46:29
Post #1

Правь статус, ####!616
**************
Group: Металариец
Posts: 6,193
Releases: 4695
From: 55°35’N 38°08’E
On Forums: 12 years 10 months
Thanks: 86972 time(s)
Unknown


(IMG:https://metalarea.org/images/audiocovers/2021_Apr/acov_tid349342_thumb.jpg)

*Artist: Nekrofília
*Album: Lángokban Elveszejtve
*Year: 2021
*Genre: Black Metal
*Country: Hungary (IMG:https://metalarea.org/forum/style_images/flags/Hungary.png)
*Format: mp3@CBR320kbps
*Size: 92MB

Tracklist:
1.Ki elveszi a világ bűneit 05:16
2.Vérhajnal csöndesség 05:34
3.Nekrofil angyalom 06:02
4.Lángokban elveszejtve 05:20
5.Önmegfeszítve 06:59
6.Szétzúzni a dicsőséges álmot 05:24
7.Végzengés 04:56
******************************
Total playing time: 39:31



(IMG:https://metalarea.org/images/youtube.png)

Technical info
(IMG:https://metalarea.org/images/spectrogram/2021_Apr/7cf149cf971b88ff8187fe11d8bb4447.png)
Input File: 01 Ki elveszi a világ bűneit.mp3
Channels : 2
Sample Rate : 44100
Precision : 16-bit
Duration : 00:05:16.08 = 13938952 samples = 23705.7 CDDA sectors
File Size : 12.8M
Bit Rate : 323k
Sample Encoding: MPEG audio (layer I, II or III)
Comments :
Title=Ki elveszi a világ bűneit
Artist=Nekrofília
Album=Lángokban Elveszejtve
Tracknumber=1
Year=2021
Genre=Black Metal



Register


Go to the top of the page
  Insert nick Quick quote
+Quote Post

Reply to this topicStart new topic
1 User(s) are reading this topic (1 Guests and 0 Anonymous Users)
0 Members:

 



- Lo-Fi Version Support form
Copyrights and abuse reports form
Time is now: 17th May 2021 - 01:17:10