Welcome Guest ( Log In | Register )

> Releases Upload / Добавление релизов

Добавить релиз тут / Click here to add release
Рекомендованные обменники / Recommended file shares

> Synthwailer - Highway To The Stars (2021), Symphonic Power Metal
post Apr 6 2021, 18:27:52
Post #1

Правь статус, ####!111
**************
Group: Металариец
Posts: 26,045
Releases: 18690
From: Г.Харьков
On Forums: 9 years 4 days
Thanks: 370451 time(s)
Unknown


(IMG:https://metalarea.org/images/audiocovers/2021_Apr/acov_tid349346_thumb.jpg)

*Artist: Synthwailer
*Album: Highway To The Stars
*Year: 2021
*Genre: Symphonic Power Metal
*Country: Finland (IMG:https://metalarea.org/forum/style_images/flags/Finland.png)
*Format: mp3@CBR320kbps
*Size: 106MB

Tracklist:
1. On Cloud Nine 05:05
2. Cinderella Shoes 04:06
3. The Maidens of Nevermore 03:32
4. Homesick Hearts 04:34
5. An Escape into Moonlight 04:54
6. Diablo's Call 04:22
7. Wave the World Goodbye 03:54
8. Malalai of Maiwand 03:30
9. Sufferance 04:10
10. Highway to the Stars 08:15
******************************
Total playing time: 46:22




Extended info
Music & Lyrics by Sami Parkkonen
Vocals by Morgane Matteuzzi


Technical info
(IMG:https://metalarea.org/images/spectrogram/2021_Apr/765c5371c7f5df287a4e72fcdc49bcb3.png)
Input File: 05 - An Escape into Moonlight.mp3
Channels : 2
Sample Rate : 44100
Precision : 16-bit
Duration : 00:04:54.84 = 13002312 samples = 22112.8 CDDA sectors
File Size : 11.8M
Bit Rate : 320k
Sample Encoding: MPEG audio (layer I, II or III)
Comments :
Title=An Escape into Moonlight
Artist=Synthwailer
Album=Highway to the Stars
Tracknumber=5
Year=2021



Register


Go to the top of the page
  Insert nick Quick quote
+Quote Post
 
Start new topic
Replies (1 - 6)
post Apr 7 2021, 09:12:39
Post #2

Литр
*
Group: Подсевший
Posts: 68
Releases: 0
From: Kazakhstan
On Forums: 12 years 3 months
Thanks: 20 time(s)
Kazakhstan



Synthwailer is a one-man-band, where all the sounds apart from the vocals have been created with virtual instruments.
Go to the top of the page
  Insert nick Quick quote
+Quote Post
post Apr 7 2021, 09:47:52
Post #3

Group: Подсевший
Posts: 19
Releases: 0
On Forums: 9 months 1 week
Thanks: 0 time(s)
China


yorsh,
Are you Morgane Matteuzzi???
Go to the top of the page
  Insert nick Quick quote
+Quote Post
post Apr 7 2021, 19:29:10
Post #4

Group: Дух
Posts: 2
Releases: 0
On Forums: 1 month 6 days
Thanks: 3 time(s)
Finland


QUOTE(China @ Apr 7 2021, 09:47:52) *
yorsh,
Are you Morgane Matteuzzi???

I strongly doubt that.

Thanks for the promotion. (IMG:style_emoticons/default/smile1.gif)


Go to the top of the page
  Insert nick Quick quote
+Quote Post
post Apr 11 2021, 04:44:56
Post #5

Group: Подсевший
Posts: 19
Releases: 0
On Forums: 9 months 1 week
Thanks: 0 time(s)
China


Synthwailer,
are you Sami Parkkonen ?
Go to the top of the page
  Insert nick Quick quote
+Quote Post
post Apr 12 2021, 19:53:03
Post #6

Group: Дух
Posts: 2
Releases: 0
On Forums: 1 month 6 days
Thanks: 3 time(s)
Finland


QUOTE(China @ Apr 11 2021, 04:44:56) *
Synthwailer,
are you Sami Parkkonen ?

Yeah, that would be me. (IMG:style_emoticons/default/smile1.gif)
Go to the top of the page
  Insert nick Quick quote
+Quote Post
post Apr 26 2021, 20:48:24
Post #7

Правь статус, ####!111
**************
Group: Металариец
Posts: 2,119
Releases: 0
From: Мытищи
On Forums: 13 years 2 months
Thanks: 1281 time(s)
Russian Federation


Вроде устал уже давно от симфо-павера, но превьюшная песня зацепила. Diablo's Call
По крайней мере, захотелось целиком послушать)

Go to the top of the page
  Insert nick Quick quote
+Quote Post

Reply to this topicStart new topic
1 User(s) are reading this topic (1 Guests and 0 Anonymous Users)
0 Members:

 



- Lo-Fi Version Support form
Copyrights and abuse reports form
Time is now: 14th May 2021 - 17:32:52