Welcome Guest ( Log In | Register )

> И неформату есть предел.

Рэп/хип-хоп/шансон/поп удаляются. Для них есть свои порталы.

> Afnimaran - Graveyard Orbit (2020), Dark Ambient
post Apr 6 2021, 19:01:32
Post #1

Шесть Литров
******
Group: Металариец
Posts: 663
Releases: 32
From: Санкт-Петербург
On Forums: 14 years 11 months
Thanks: 2109 time(s)
Russian Federation


(IMG:http://metalarea.org/images/audiocovers/2021_Apr/acov_tid349347_thumb.jpg)

*Artist: Afnimaran
*Album: Graveyard Orbit
*Year: 2020
*Genre: Dark Ambient
*Country: Belarus (IMG:http://metalarea.org/forum/style_images/flags/Belarus.png)
*Format: mp3@CBR320kbps
*Size: 133MB

Tracklist:
01. Nostromo 07:43
02. Heighliner 10:32
03. BC-304 05:58
04. Enterprise-D 07:06
05. Super Star Destroyer 08:30
06. Solaris Station 07:26
07. Atlantis 10:06
******************************
Total playing time: 57:21



Technical info
(IMG:http://metalarea.org/images/spectrogram/2021_Apr/ce0d0379cc514e5b2088f34022b1ff99.png)
Input File: 02 - Heighliner.mp3
Channels : 2
Sample Rate : 44100
Precision : 16-bit
Duration : 00:10:32.36 = 27886988 samples = 47426.9 CDDA sectors
File Size : 25.3M
Bit Rate : 320k
Sample Encoding: MPEG audio (layer I, II or III)
Comments :
Title=Heighliner
Artist=Afnimaran
Album=Graveyard Orbit
Tracknumber=02
Year=2020
Genre=Dark Ambient



Register


Go to the top of the page
  Insert nick Quick quote
+Quote Post
 
Start new topic
Replies (1 - 2)
post Apr 7 2021, 12:26:58
Post #2

De Mysteriis Dom Sathanas
**************
Group: Металариец
Posts: 4,202
Releases: 63
From: Doom
On Forums: 12 years 9 months
Thanks: 3607 time(s)
Russian Federation


Звездные врата? (IMG:style_emoticons/default/25.gif)
Go to the top of the page
  Insert nick Quick quote
+Quote Post
post Apr 8 2021, 18:29:40
Post #3

Dark Ambient Shoujo
**********
Group: Металариец
Posts: 1,369
Releases: 2
On Forums: 12 years 3 months
Thanks: 815 time(s)
Russian Federation


ЦИТАТА(RUSP73 @ 7th April 2021 - 14:26:58) *
Звездные врата?

Ну там и Стар Трек, и Чужой сразу в глаза бросаются.
Go to the top of the page
  Insert nick Quick quote
+Quote Post

Reply to this topicStart new topic
1 User(s) are reading this topic (1 Guests and 0 Anonymous Users)
0 Members:

 



- Lo-Fi Version Support form
Copyrights and abuse reports form
Time is now: 18th April 2021 - 22:43:01