Welcome Guest ( Log In | Register )

> Noah Angel - Endless Suffering Into The Dark Skies [ep] (2021), Acoustic/Atmospheric Black Metal
post Apr 6 2021, 20:28:51
Post #1

Malum dominus omnium
****
Group: Металариец
Posts: 361
Releases: 272
On Forums: 1 year 3 months
Thanks: 5397 time(s)
Vatican City


(IMG:https://metalarea.org/images/audiocovers/2021_Apr/acov_tid349352_thumb.jpg)

*Artist: Noah Angel
*Album: Endless Suffering Into The Dark Skies [ep]
*Year: 2021
*Genre: Acoustic/Atmospheric Black Metal
*Country: Canada (IMG:https://metalarea.org/forum/style_images/flags/Canada.png)
*Format: mp3@CBR320kbps
*Size: 87MB

Tracklist:
1. Immortality Of Dark Desire 03:48
2. Solitude 15:06
3. Endless Suffering Into The Dark Skies 18:55
******************************
Total playing time: 37:49


(IMG:https://metalarea.org/images/youtube.png)

Technical info
(IMG:https://metalarea.org/images/spectrogram/2021_Apr/0c07e74ad459c64e4493ef15ee1e01c6.png)
Input File: Noah Angel - Solitude.mp3
Channels : 2
Sample Rate : 48000
Precision : 16-bit
Duration : 00:15:06.15 = 43495344 samples ~ 67961.5 CDDA sectors
File Size : 36.2M
Bit Rate : 320k
Sample Encoding: MPEG audio (layer I, II or III)
Comments :
Title=Solitude
Album=Endless Suffering Into The Dark Skies
Tracknumber=2
Year=2021
Genre=Acoustic Black Metal



Register


Go to the top of the page
  Insert nick Quick quote
+Quote Post
 
Start new topic
Replies (1 - 2)
post Apr 8 2021, 14:09:42
Post #2

Четыре Литра
****
Group: Металариец
Posts: 340
Releases: 3
From: Москва
On Forums: 13 years 2 months
Thanks: 248 time(s)
Russian Federation


Это замечательный альбом, но почему в жанрах стоит блэк? Весь альбом акустический.


Thanks:
(1) Nemez,
Go to the top of the page
  Insert nick Quick quote
+Quote Post
post Apr 23 2021, 11:23:52
Post #3

добрый мизантроп
**************
Group: Металариец
Posts: 2,227
Releases: 1
From: Минск
On Forums: 10 years 6 months
Thanks: 1036 time(s)
Madagascar


ЦИТАТА(Kyir @ Apr 8 2021, 16:09:42) *
Это замечательный альбом, но почему в жанрах стоит блэк? Весь альбом акустический.

Так принято (IMG:style_emoticons/default/1488.gif) Горы, Квебек, спокойные мелодии, АБМ релиз от того же ван-мена - и достаточно.
Go to the top of the page
  Insert nick Quick quote
+Quote Post

Reply to this topicStart new topic
1 User(s) are reading this topic (1 Guests and 0 Anonymous Users)
0 Members:

 



- Lo-Fi Version Support form
Copyrights and abuse reports form
Time is now: 12th June 2021 - 21:22:16