Welcome Guest ( Log In | Register )

> Releases Upload / Добавление релизов

Добавить релиз тут / Click here to add release
Рекомендованные обменники / Recommended file shares

 
Reply to this topicStart new topic
> 970Cen - Atornillado A Una Fresca [ep] (2017), Thrash/Heavy Metal
post Apr 6 2021, 21:34:18
Post #1

Правь статус, ####!111
**************
Group: Металариец
Posts: 26,030
Releases: 18686
From: Г.Харьков
On Forums: 9 years 2 days
Thanks: 370128 time(s)
Unknown


(IMG:https://metalarea.org/images/audiocovers/2021_Apr/acov_tid349355_thumb.jpg)

*Artist: 970Cen
*Album: Atornillado A Una Fresca [ep]
*Year: 2017
*Genre: Thrash/Heavy Metal
*Country: Argentina (IMG:https://metalarea.org/forum/style_images/flags/Argentina.png)
*Format: mp3@CBR320kbps
*Size: 54MB

Tracklist:
1. 2011 02:33
2. Dylan me rayó todo 03:49
3. Arrakenk 03:39
4. Abducción 03:39
5. Flores y tumbas 04:28
6. Inyeccion 02:37
7. No soy yo 02:43
******************************
Total playing time: 23:28


(IMG:https://metalarea.org/images/youtube.png)

Technical info
(IMG:https://metalarea.org/images/spectrogram/2021_Apr/8172044021677e4f481419247f73da22.png)
Input File: 05 - Flores Y Tumbas.mp3
Channels : 2
Sample Rate : 44100
Precision : 16-bit
Duration : 00:04:28.00 = 11818800 samples = 20100 CDDA sectors
File Size : 10.8M
Bit Rate : 323k
Sample Encoding: MPEG audio (layer I, II or III)
Comments :
Title=Flores Y Tumbas
Artist=970cen
Album=Atornillado a Una Fresca
Tracknumber=5
Year=2017-10-23
Genre=Metal
Discnumber=1



Register


Go to the top of the page
  Insert nick Quick quote
+Quote Post

Reply to this topicStart new topic
1 User(s) are reading this topic (1 Guests and 0 Anonymous Users)
0 Members:

 



- Lo-Fi Version Support form
Copyrights and abuse reports form
Time is now: 13th May 2021 - 03:45:26