Welcome Guest ( Log In | Register )

> Releases Upload / Добавление релизов

Добавить релиз тут / Click here to add release
Рекомендованные обменники / Recommended file shares

 
Reply to this topicStart new topic
> Cadaveric Cult - Spiritual Migration [demo] (2021), Death/Doom Metal
post Apr 6 2021, 23:22:06
Post #1

Два Литра
**
Group: Завсегдатай
Posts: 148
Releases: 69
On Forums: 7 months 4 weeks
Thanks: 627 time(s)
Unknown


(IMG:https://metalarea.org/images/audiocovers/2021_Apr/acov_tid349356_thumb.jpg)

*Artist: Cadaveric Cult
*Album: Spiritual Migration [demo]
*Year: 2021
*Genre: Death/Doom Metal
*Country: Chile (IMG:https://metalarea.org/forum/style_images/flags/Chile.png)
*Format: mp3@CBR320kbps
*Size: 25MB

Tracklist:
1. Transhumation
2. Descent
3. Reincarnation Transmigration
******************************
Total playing time: 10:57



Technical info
(IMG:https://metalarea.org/images/spectrogram/2021_Apr/c2d8218c83dd5dbeda2322e97d0faffa.png)
Input File: 1. Transhumation.mp3
Channels : 2
Sample Rate : 44100
Precision : 16-bit
Duration : 00:03:20.97 = 8862821 samples = 15072.8 CDDA sectors
File Size : 8.04M
Bit Rate : 320k
Sample Encoding: MPEG audio (layer I, II or III)



Register


Go to the top of the page
  Insert nick Quick quote
+Quote Post

Reply to this topicStart new topic
1 User(s) are reading this topic (1 Guests and 0 Anonymous Users)
0 Members:

 



- Lo-Fi Version Support form
Copyrights and abuse reports form
Time is now: 17th May 2021 - 01:14:30