Welcome Guest ( Log In | Register )

> Releases Upload / Добавление релизов

Добавить релиз тут / Click here to add release
Рекомендованные обменники / Recommended file shares

 
Reply to this topicStart new topic
> Gatling - De Vermis Mysteriis [demo] (2021), Death/Black/Thrash Metal
post Apr 6 2021, 23:31:35
Post #1

Два Литра
**
Group: Завсегдатай
Posts: 148
Releases: 69
On Forums: 7 months 3 weeks
Thanks: 623 time(s)
Unknown


(IMG:https://metalarea.org/images/audiocovers/2021_Apr/acov_tid349357_thumb.jpg)

*Artist: Gatling
*Album: De Vermis Mysteriis [demo]
*Year: 2021
*Genre: Death/Black/Thrash Metal
*Country: Peru (IMG:https://metalarea.org/forum/style_images/flags/Peru.png)
*Format: mp3@CBR320kbps
*Size: 32MB

Tracklist:
1. Kharisiri Attack
2. Coven Of The Worms
3. Sabbatical Devil Worship & Darkness and Evil (rehearsal version)
******************************
Total playing time: 14:00



Technical info
(IMG:https://metalarea.org/images/spectrogram/2021_Apr/5bd65665fa805a1d145f275f103f8699.png)
Input File: Gatling - De Vermis Mysteriis - 01 Kharisiri Attack.mp3
Channels : 2
Sample Rate : 44100
Precision : 16-bit
Duration : 00:04:09.64 = 11009080 samples = 18722.9 CDDA sectors
File Size : 10.1M
Bit Rate : 324k
Sample Encoding: MPEG audio (layer I, II or III)
Comments :
Title=Kharisiri Attack
Artist=Gatling
Album=De Vermis Mysteriis
Year=2021



Register


Go to the top of the page
  Insert nick Quick quote
+Quote Post

Reply to this topicStart new topic
1 User(s) are reading this topic (1 Guests and 0 Anonymous Users)
0 Members:

 



- Lo-Fi Version Support form
Copyrights and abuse reports form
Time is now: 13th May 2021 - 05:03:40