Welcome Guest ( Log In | Register )

> Ancient Mastery - The Chosen One [ep] (2021), Atmospheric Black Metal
post Apr 7 2021, 20:02:31
Post #1

Правь статус, ####!616
**************
Group: Металариец
Posts: 6,305
Releases: 4802
From: 55°35’N 38°08’E
On Forums: 12 years 11 months
Thanks: 88750 time(s)
Unknown


(IMG:https://metalarea.org/images/audiocovers/2021_Apr/acov_tid349407_thumb.jpg)

*Artist: Ancient Mastery
*Album: The Chosen One [ep]
*Year: 2021
*Genre: Atmospheric Black Metal
*Country: Austria (IMG:https://metalarea.org/forum/style_images/flags/Austria.png)
*Format: mp3@CBR320kbps
*Size: 50MB

Tracklist:
1.Shadow Of The Past 05:50
2.To Bear The Sword 05:12
3.The Chosen One 09:42
******************************
Total playing time: 20:44



Technical info
(IMG:https://metalarea.org/images/spectrogram/2021_Apr/0bb7bf34f2cd1a9b4a2abf65dfc9adc4.png)
Input File: 02 To Bear The Sword.mp3
Channels : 2
Sample Rate : 44100
Precision : 16-bit
Duration : 00:05:12.68 = 13789188 samples = 23451 CDDA sectors
File Size : 12.6M
Bit Rate : 322k
Sample Encoding: MPEG audio (layer I, II or III)
Comments :
Title=To Bear The Sword
Artist=Ancient Mastery
Album=The Chosen One
Tracknumber=2
Year=2021
Genre=Black Metal



Register


Go to the top of the page
  Insert nick Quick quote
+Quote Post
 
Start new topic
Replies (1 - 2)
post Apr 10 2021, 23:04:16
Post #2

Пять Литров
*****
Group: Металариец
Posts: 429
Releases: 73
From: italy
On Forums: 12 years 11 months
Thanks: 1637 time(s)
Italy


nice one
Go to the top of the page
  Insert nick Quick quote
+Quote Post
post May 3 2021, 12:49:29
Post #3

добрый мизантроп
**************
Group: Металариец
Posts: 2,227
Releases: 1
From: Минск
On Forums: 10 years 6 months
Thanks: 1036 time(s)
Madagascar


ЦИТАТА(murian @ Apr 11 2021, 01:04:16) *
nice one

+1
Go to the top of the page
  Insert nick Quick quote
+Quote Post

Reply to this topicStart new topic
2 User(s) are reading this topic (2 Guests and 0 Anonymous Users)
0 Members:

 



- Lo-Fi Version Support form
Copyrights and abuse reports form
Time is now: 12th June 2021 - 22:10:20