Welcome Guest ( Log In | Register )

> Releases Upload / Добавление релизов

Добавить релиз тут / Click here to add release
Рекомендованные обменники / Recommended file shares

> Ründgard - Stronghold Of Majestic Ruins (2021), Raw Black Metal
post Apr 7 2021, 23:51:08
Post #1

Malum dominus omnium
****
Group: Металариец
Posts: 327
Releases: 239
On Forums: 1 year 2 months
Thanks: 4679 time(s)
Vatican City


(IMG:https://metalarea.org/images/audiocovers/2021_Apr/acov_tid349413_thumb.jpg)

*Artist: Ründgard
*Album: Stronghold Of Majestic Ruins
*Year: 2021
*Genre: Raw Black Metal
*Country: Unknown (IMG:https://metalarea.org/forum/style_images/flags/Unknown.png)
*Format: mp3@CBR320kbps
*Size: 58MB

Tracklist:
1. Vollmonddomänen 01:48
2. Descending From the Southern Skies 07:04
3. Visions Through the Grim Tower 05:43
4. Spirits From the Medieval Storms 05:27
5. Die Valdivianischen Schatten 04:54
******************************
Total playing time: 24:56

(IMG:https://metalarea.org/images/youtube.png)

Instagram

Technical info
(IMG:https://metalarea.org/images/spectrogram/2021_Apr/a8faafe35f00bc4c40203490d5a648c4.png)
Input File: Ründgard - Descending From the Southern Skies.mp3
Channels : 2
Sample Rate : 48000
Precision : 16-bit
Duration : 00:07:04.75 = 20388096 samples ~ 31856.4 CDDA sectors
File Size : 17.0M
Bit Rate : 320k
Sample Encoding: MPEG audio (layer I, II or III)
Comments :
Title=Descending From the Southern Skies
Artist=Ründgard
Album=Stronghold of Majestic Ruins
Tracknumber=2
Year=2021
Genre=Black Metal



Register


Go to the top of the page
  Insert nick Quick quote
+Quote Post
 
Start new topic
Replies (1 - 7)
post Apr 8 2021, 15:26:14
Post #2

Маньяк
**********
Group: Металариец
Posts: 1,262
Releases: 37
From: великий город Питер
On Forums: 15 years 4 months
Thanks: 2120 time(s)
Russian Federation


чилийцы судя по всему....
Go to the top of the page
  Insert nick Quick quote
+Quote Post
post Apr 8 2021, 19:21:59
Post #3

Русь Понад Усе!
**************
Group: Металариец
Posts: 4,341
Releases: 15
From: Украина
On Forums: 13 years 8 months
Thanks: 1763 time(s)
Ukraine


Вот очень не плохо сыгранный альбом. Интересный альбом !!!
Go to the top of the page
  Insert nick Quick quote
+Quote Post
post Apr 9 2021, 06:31:26
Post #4

кручу наждак
**************
Group: Металариец
Posts: 4,936
Releases: 104
From: Самара
On Forums: 10 years 11 months
Thanks: 3973 time(s)
Russian Federation


Олдскульно, но на этом достоинства заканчиваются.
Go to the top of the page
  Insert nick Quick quote
+Quote Post
post Apr 9 2021, 18:01:30
Post #5

Три Литра
***
Group: Завсегдатай
Posts: 222
Releases: 0
On Forums: 3 months 2 weeks
Thanks: 186 time(s)
Russian Federation


Альбом сделанный что называется "под старину" что есть гуд (IMG:style_emoticons/default/true_black.gif)
Сейчас такого много и этот не самый худший образец подобного олдскула
Go to the top of the page
  Insert nick Quick quote
+Quote Post
post Apr 9 2021, 18:23:58
Post #6

Пять Литров
*****
Group: Металариец
Posts: 400
Releases: 1
From: Ingrija
On Forums: 13 years 5 months
Thanks: 356 time(s)
Russian Federation


ЦИТАТА(AlexCrazy @ Apr 8 2021, 17:26:14) *
чилийцы судя по всему....


Судя по названию группы И альбома - скорее, китайцы. Абибас там, павасоник, рундгард - стронгхолд оф мажестик руинс... Нет ли у них сайд-проекта Branicold?


Thanks:
(1) STN,
Go to the top of the page
  Insert nick Quick quote
+Quote Post
post Apr 28 2021, 09:33:14
Post #7

добрый мизантроп
**************
Group: Металариец
Posts: 2,171
Releases: 1
From: Минск
On Forums: 10 years 5 months
Thanks: 1020 time(s)
Madagascar


ЦИТАТА(AlexCrazy @ Apr 8 2021, 17:26:14) *
чилийцы судя по всему....

Чилийские немцы, немецкие эмигранты из 19-го века
Go to the top of the page
  Insert nick Quick quote
+Quote Post
post May 4 2021, 07:19:04
Post #8

добрый мизантроп
**************
Group: Металариец
Posts: 2,171
Releases: 1
From: Минск
On Forums: 10 years 5 months
Thanks: 1020 time(s)
Madagascar


(IMG:style_emoticons/default/true_black.gif) (IMG:style_emoticons/default/true_black.gif) (IMG:style_emoticons/default/true_black.gif)
Go to the top of the page
  Insert nick Quick quote
+Quote Post

Reply to this topicStart new topic
1 User(s) are reading this topic (1 Guests and 0 Anonymous Users)
0 Members:

 



- Lo-Fi Version Support form
Copyrights and abuse reports form
Time is now: 11th May 2021 - 09:07:08