Welcome Guest ( Log In | Register )

> Onchocerciasis Esophagogastroduodenoscopy - The Rotted Plinth Of Sachiel (2021), Brutal Death Metal
post Apr 8 2021, 13:36:40
Post #1

Правь статус, ####!111
**************
Group: Металариец
Posts: 26,375
Releases: 18969
From: Г.Харьков
On Forums: 9 years 1 month
Thanks: 378682 time(s)
Unknown


(IMG:https://metalarea.org/images/audiocovers/2021_Apr/acov_tid349422_thumb.jpg)

*Artist: Onchocerciasis Esophagogastroduodenoscopy
*Album: The Rotted Plinth Of Sachiel
*Year: 2021
*Genre: Brutal Death Metal
*Country: International (IMG:https://metalarea.org/forum/style_images/flags/International.png)
*Format: mp3@CBR320kbps
*Size: 61MB

Tracklist:
01. The Rotted Plinth of Sachiel
02. Facial Gutting
03. Bloodroot & Blazing Sun
04. Flayed Tellurian Husk
05. Fervid Genital Skinning
06. Alluvial Maelstrom of Frenzied Self-Mutilation
07. The Rose of Jericho
08. At the Gates of Unyielding Abuse
09. Profane Psalms Carved into the Palms of God
******************************
Total playing time: 25:35



Extended info
Canada / Australia


Technical info
(IMG:https://metalarea.org/images/spectrogram/2021_Apr/52be5d325d50fbfeb06fb5b1470bc7ff.png)
Input File: 07. The Rose of Jericho.mp3
Channels : 2
Sample Rate : 44100
Precision : 16-bit
Duration : 00:03:13.45 = 8531145 samples = 14508.8 CDDA sectors
File Size : 7.95M
Bit Rate : 329k
Sample Encoding: MPEG audio (layer I, II or III)
Comments :
Title=The Rose of Jericho
Artist=Onchocerciasis Esophagogastroduodenoscopy
Album=The Rotted Plinth of Sachiel
Tracknumber=7
Year=2021
Discnumber=1/1



Register


Go to the top of the page
  Insert nick Quick quote
+Quote Post
 
Start new topic
Replies (1 - 1)
post Apr 9 2021, 13:19:39
Post #2

\m/
Group Icon
Group: S-moderation team
Posts: 7,932
Releases: 19
From: Петропавловск-Камчатский
On Forums: 12 years 1 week
Thanks: 7984 time(s)
Russian Federation


ЦИТАТА
Pre-order Digital Album $999 USD or more
Send as Gift

(IMG:style_emoticons/default/1488.gif)


Thanks:
Go to the top of the page
  Insert nick Quick quote
+Quote Post

Reply to this topicStart new topic
2 User(s) are reading this topic (2 Guests and 0 Anonymous Users)
0 Members:

 



- Lo-Fi Version Support form
Copyrights and abuse reports form
Time is now: 25th June 2021 - 10:38:43