Welcome Guest ( Log In | Register )

> Wolfchant - Omega : Bestia (2021), Pagan/Folk Metal (D)
post Apr 8 2021, 14:33:17
Post #1

Правь статус, ####!111
**************
Group: Металариец
Posts: 26,322
Releases: 18942
From: Г.Харьков
On Forums: 9 years 1 month
Thanks: 377857 time(s)
Unknown


(IMG:https://metalarea.org/images/audiocovers/2021_Apr/acov_tid349424_thumb.jpg)

*Artist: Wolfchant
*Album: Omega : Bestia
*Year: 2021
*Genre: Pagan/Folk Metal
*Country: Germany (IMG:https://metalarea.org/forum/style_images/flags/Germany.png)
*Format: mp3@CBR320kbps
*Size: 148MB

Tracklist:
01. Omega: Bestia 01:54
02. Komet 04:59
03. Into Eternal Darkness 05:19
04. Im Zeichen des Tiers 04:53
05. Der Geist und die Dunkelheit 05:43
06. Bestie 04:50
07. Jäger der Nacht 04:11
08. Out in the Dark 04:38
09. The Flame 04:44
10. Kelch deiner Freiheit 05:09
11. Wolkenheer 05:05
12. The Last Storm 04:30
13. The Devil Rides Out 04:46
14. The End 04:32
******************************
Total playing time: 1:05:13



Extended info
Lokhi Bass (2003-2005), Vocals (harsh) (2003-2018, 2019-present)
Skaahl Guitars (lead) (2003-2018, 2019-present)
See also: Nothgard
Nortwin Vocals (clean) (2010-2018, 2019-present)
See also: Rebellion, Xiron, ex-Black Destiny, High Jacker
Ghust Drums (2019-present)
See also: Imperious (live), ex-Nothgard
Seehb Guitars (2019-present)
See also: Collapsed Minds, Zodiac Ass



Technical info
(IMG:https://metalarea.org/images/spectrogram/2021_Apr/c0417543a6f7253cd85e4dfe6cef9302.png)
Input File: 10 Kelch deiner Freiheit.mp3
Channels : 2
Sample Rate : 44100
Precision : 16-bit
Duration : 00:05:09.88 = 13665752 samples = 23241.1 CDDA sectors
File Size : 12.4M
Bit Rate : 320k
Sample Encoding: MPEG audio (layer I, II or III)
Comments :
Title=Kelch deiner Freiheit
Artist=Wolfchant
Album=Omega: Bestia
Tracknumber=10/14
Year=2021-21-20
Discnumber=1/1



Register


Go to the top of the page
  Insert nick Quick quote
+Quote Post
 
Start new topic
Replies (1 - 7)
post Apr 9 2021, 13:52:38
Post #2

Три Литра
***
Group: Завсегдатай
Posts: 205
Releases: 0
From: TheМля
On Forums: 14 years 8 months
Thanks: 66 time(s)
Belarus


Транскод. Срез на 18.3 kHz.
Go to the top of the page
  Insert nick Quick quote
+Quote Post
post Apr 9 2021, 14:03:34
Post #3

Правь статус, ####!111
**************
Group: Металариец
Posts: 2,568
Releases: 235
On Forums: 14 years 6 months
Thanks: 6348 time(s)
Unknown


QUOTE(dimpa @ Apr 9 2021, 13:52:38) *
Транскод. Срез на 18.3 kHz.


Это не срез, насколько я вижу.
На настоящем срезе вообще ничего бы выше 18,3 кГц не было кроме одиночных шумов,
а тут просто амплитуда сигнала снижена выше 18,3 кГц.
Думаю, из-за косячного кодека.
Go to the top of the page
  Insert nick Quick quote
+Quote Post
post Apr 9 2021, 21:44:20
Post #4

FOLK METAL FEVER
**************
Group: Металариец
Posts: 2,222
Releases: 6
From: Kyiv
On Forums: 13 years 7 months
Thanks: 290 time(s)
Ukraine


Середняк как середняк.
Go to the top of the page
  Insert nick Quick quote
+Quote Post
post Apr 15 2021, 13:35:06
Post #5

грызущие вместе
******
Group: Металариец
Posts: 526
Releases: 0
From: Moscow/MO
On Forums: 14 years 7 months
Thanks: 181 time(s)
Russian Federation


Вполне приличный альбом прогнать разок-другой. Ничего нового, но это скорее даже плюс.
Go to the top of the page
  Insert nick Quick quote
+Quote Post
post Apr 26 2021, 19:57:46
Post #6

Правь статус, ####!111
**************
Group: Металариец
Posts: 2,119
Releases: 0
From: Мытищи
On Forums: 13 years 3 months
Thanks: 1281 time(s)
Russian Federation


По превью здесь изрядно намешано стилей, надо слушать)
Go to the top of the page
  Insert nick Quick quote
+Quote Post
post Apr 28 2021, 18:43:39
Post #7

Сектант технодро4чер
**************
Group: Металариец
Posts: 5,581
Releases: 143
From: Тимчасово окупована територія
On Forums: 12 years 9 months
Thanks: 5950 time(s)
Ukraine


Мэдэмэ с ... (IMG:style_emoticons/default/21.gif)
Go to the top of the page
  Insert nick Quick quote
+Quote Post
post May 4 2021, 18:39:35
Post #8

Три Литра
***
Group: Завсегдатай
Posts: 262
Releases: 0
From: Ростова на Дону
On Forums: 12 years 4 months
Thanks: 45 time(s)
Russian Federation


в более сочном качестве как я понял не ждать? запись не ахти
Go to the top of the page
  Insert nick Quick quote
+Quote Post

Reply to this topicStart new topic
1 User(s) are reading this topic (1 Guests and 0 Anonymous Users)
0 Members:

 



- Lo-Fi Version Support form
Copyrights and abuse reports form
Time is now: 19th June 2021 - 23:16:53